<?xml version="1.0" encoding="UTF-8"?><svg xmlns="http://www.w3.org/2000/svg" width="100%" height="100%"><defs><font id="web" horiz-adv-x="1094"><!--



NOTICE: This font software is the valuable property 
of Monotype Imaging and/or its suppliers and its use 
by you is covered under the terms of the Web Font license 
agreement between you and Monotype Imaging. You may 
ONLY use this font software with the licensed web site. 
Except as specifically permitted by the license, you 
may not copy this font software. If you have any questions, 
please contact Monotype Imaging. 

For more information, please visit http://www.ascenderfonts.com/info/webfont-eula.aspx

Licensed to: microsoft.com

Serial number: SH-270
--><font-face font-family="" units-per-em="2048" panose-1="2 11 4 2 4 2 4 2 2 3" ascent="2210" descent="-514" alphabetic="0"/><missing-glyph horiz-adv-x="1322" d="M166 0V1398H1156V0H166ZM314 148H1008V1250H314V148Z"/><glyph unicode="&#13;" horiz-adv-x="0"/><glyph unicode=" " horiz-adv-x="561"/><glyph unicode="!" horiz-adv-x="582" d="M344 403H233L219 1434H358L344 403ZM291 -18Q251 -18 223 9T195 77Q195 118 223 145T291 173Q310 173 327 166T357 146T379 116T387 77Q387 57 379 40T358 9T327 -11T291 -18Z"/><glyph unicode="&quot;" horiz-adv-x="744" d="M575 986H460V1434H575V986ZM285 986H170V1434H285V986Z"/><glyph unicode="#" horiz-adv-x="1223" d="M1138 936H872L802 613H1085L1063 521H784L697 123H594L680 521H421L336 123H233L318 521H46L65 613H338L406 936H121L141 1028H425L511 1434H614L528 1028H788L875 1434H977L890 1028H1159L1138 936ZM510 936L439 613H700L770 936H510Z"/><glyph unicode="$" horiz-adv-x="1079" d="M591 -209H500V0Q301 0 164 83V221Q197 196 237 176T321 142T411 120T500 112V667Q439 701 379 735T270 815T192 920T162 1065Q162 1139 187 1202T257 1313T364 1392T500 1434V1615H591V1437Q679 1435 745 1420T857 1382V1251Q752 1321 591 1324V756Q689 707 755 661T861 569T918 472T935 363Q935 293 912 233T844 127T736 49T591 6V-209ZM500 1320Q405 1302 350 1239T294 1081Q294 1037 303 1002T336 934T399 872T500 807V1320ZM591 117Q697 137 750 196T803 347Q803 387 792 422T755 489T690 553T591 617V117Z"/><glyph unicode="%" horiz-adv-x="1641" d="M410 722Q334 722 273 748T170 821T105 935T82 1082Q82 1171 107 1241T177 1359T285 1433T425 1459Q500 1459 560 1434T662 1362T726 1248T749 1094Q749 1013 725 945T656 828T550 750T410 722ZM421 1363Q369 1363 327 1344T255 1290T210 1203T194 1086Q194 961 252 889T416 817Q469 817 510 836T579 892T622 979T637 1093Q637 1224 579 1293T421 1363ZM431 -21H310L1201 1433H1321L431 -21ZM1229 -23Q1154 -23 1093 3T990 76T924 189T901 337Q901 425 926 495T996 614T1104 689T1244 715Q1319 715 1379 690T1481 618T1545 503T1568 348Q1568 267 1544 199T1475 82T1369 5T1229 -23ZM1240 617Q1188 617 1146 598T1075 544T1029 457T1013 340Q1013 278 1028 228T1072 144T1142 91T1235 72Q1287 72 1328 91T1397 146T1441 233T1457 348Q1457 480 1399 548T1240 617Z"/><glyph unicode="&amp;" horiz-adv-x="1650" d="M1416 1121Q1421 1085 1426 1039T1432 935Q1432 749 1387 581T1245 279Q1272 242 1299 210T1355 153T1412 116T1472 102Q1494 102 1509 103T1537 108T1562 115T1590 126V5Q1564 -7 1532 -14T1457 -22Q1412 -22 1373 -7T1298 36T1229 101T1163 183Q1064 86 929 31T617 -24Q510 -24 424 3T277 83T183 208T150 375Q150 445 170 508T235 627T348 732T516 820Q480 846 445 879T382 953T336 1041T318 1142Q318 1217 346 1276T423 1375T538 1437T681 1458Q755 1458 816 1437T920 1376T986 1282T1010 1161Q1010 1108 997 1060T954 969T875 885T754 809Q778 795 802 780T851 747T905 706T966 653Q1022 603 1072 532T1172 385Q1242 494 1278 631T1315 926Q1315 956 1314 981T1309 1028T1303 1073T1297 1121H1416ZM621 89Q770 89 887 140T1093 284Q1044 356 994 428T884 564Q847 603 813 631T747 680T683 719T622 753Q616 751 611 749T600 745Q528 720 470 684T369 602T305 501T282 381Q282 314 307 260T376 168T483 110T621 89ZM445 1141Q445 1097 464 1058T513 984T579 921T648 871Q769 922 827 991T885 1148Q885 1197 868 1235T821 1298T755 1337T676 1350Q624 1350 581 1334T508 1290T462 1224T445 1141Z"/><glyph unicode="'" horiz-adv-x="454" d="M285 986H170V1434H285V986Z"/><glyph unicode="(" horiz-adv-x="598" d="M451 -326Q145 28 145 546Q145 1077 453 1434H576Q263 1064 263 548Q263 48 573 -326H451Z"/><glyph unicode=")" horiz-adv-x="598" d="M25 -326Q335 48 335 548Q335 1064 22 1434H145Q453 1077 453 546Q453 28 147 -326H25Z"/><glyph unicode="*" horiz-adv-x="842" d="M487 1049L682 794L589 731L424 1002L256 731L164 794L358 1049L73 1115L106 1220L384 1120L364 1434H480L462 1120L736 1220L770 1115L487 1049Z"/><glyph unicode="+" horiz-adv-x="1366" d="M737 542V135H629V542H221V651H629V1059H737V651H1145V542H737Z"/><glyph unicode="," horiz-adv-x="449" d="M140 -256H43L176 227H307L140 -256Z"/><glyph unicode="-" horiz-adv-x="817" d="M144 530V640H691V530H144Z"/><glyph unicode="." horiz-adv-x="449" d="M224 -20Q184 -20 156 8T128 76Q128 117 155 145T224 173Q244 173 261 166T292 146T313 115T321 76Q321 56 313 39T292 8T262 -12T224 -20Z"/><glyph unicode="/" horiz-adv-x="774" d="M93 -238H-29L664 1434H789L93 -238Z"/><glyph unicode="0" horiz-adv-x="1079" d="M527 -24Q424 -24 343 22T206 157T120 380T90 687Q90 878 120 1022T210 1263T357 1409T558 1458Q990 1458 990 723Q990 542 959 403T869 168T724 25T527 -24ZM550 1346Q390 1346 306 1184T222 697Q222 397 302 242T541 86Q618 86 677 126T777 246T837 440T858 707Q858 1346 550 1346Z"/><glyph unicode="1" horiz-adv-x="1079" d="M173 0V114H499V1316L157 1205V1323L627 1475V114H950V0H173Z"/><glyph unicode="2" horiz-adv-x="1079" d="M89 0V122L493 539Q579 628 639 696T738 825T794 943T812 1069Q812 1202 738 1274T526 1346Q334 1346 163 1190V1330Q329 1458 543 1458Q636 1458 710 1432T835 1356T914 1238T941 1084Q941 940 867 815Q830 752 759 666T579 469L238 120V116H930V0H89Z"/><glyph unicode="3" horiz-adv-x="1079" d="M123 193Q278 86 443 86Q511 86 574 103T685 156T763 249T792 385Q792 535 687 611T376 687H262V798H367Q553 798 647 871T741 1086Q741 1213 672 1279T463 1346Q319 1346 179 1248V1377Q329 1458 490 1458Q567 1458 636 1437T758 1374T842 1268T874 1119Q874 832 590 752V748Q661 741 722 714T828 643T898 537T924 399Q924 297 886 218T782 85T628 3T439 -25Q257 -25 123 52V193Z"/><glyph unicode="4" horiz-adv-x="1079" d="M816 393V0H689V393H21V485L671 1434H816V501H1003V393H816ZM689 1151Q689 1188 690 1222T693 1290H689Q678 1268 666 1243T636 1192L164 501H689V1151Z"/><glyph unicode="5" horiz-adv-x="1079" d="M160 172Q303 86 446 86Q528 86 594 110T706 178T778 284T803 421Q803 579 706 662T420 745Q345 745 202 733V1434H871V1318H325V853Q412 859 463 859Q577 859 664 830T812 745T903 611T934 432Q934 330 901 246T805 102T650 9T441 -24Q264 -24 160 32V172Z"/><glyph unicode="6" horiz-adv-x="1079" d="M911 1293Q806 1346 689 1346Q588 1346 507 1297T368 1160T279 947T248 671H252Q356 897 596 897Q686 897 760 865T886 773T967 633T996 454Q996 349 964 262T873 111T734 12T557 -24Q454 -24 372 19T233 145T146 351T116 630Q116 817 155 970T269 1231T449 1399T688 1458Q821 1458 911 1420V1293ZM567 785Q500 785 444 759T346 688T283 587T260 469Q260 391 282 322T343 200T439 117T564 86Q630 86 685 112T780 186T842 297T864 435Q864 515 844 579T786 689T692 760T567 785Z"/><glyph unicode="7" horiz-adv-x="1079" d="M410 0H275L822 1318H88V1434H982V1395L410 0Z"/><glyph unicode="8" horiz-adv-x="1079" d="M420 753Q155 877 155 1107Q155 1183 185 1247T270 1358T398 1431T561 1458Q642 1458 710 1434T827 1365T903 1261T930 1129Q930 888 653 755V751Q978 634 978 358Q978 272 947 202T856 81T709 4T511 -24Q422 -24 347 2T218 77T134 194T104 344Q104 618 420 748V753ZM539 811Q798 916 798 1114Q798 1168 780 1211T729 1284T650 1330T547 1346Q494 1346 447 1329T365 1282T308 1209T287 1116Q287 915 539 811ZM530 687Q378 625 307 545T236 350Q236 293 258 245T320 161T416 106T543 86Q612 86 668 106T763 160T824 243T846 346Q846 467 768 549T530 687Z"/><glyph unicode="9" horiz-adv-x="1079" d="M175 147Q294 86 407 86Q513 86 595 129T732 257T817 464T846 746H842Q746 538 506 538Q416 538 341 571T212 663T128 803T98 982Q98 1087 131 1174T224 1325T366 1423T545 1458Q645 1458 725 1417T861 1293T947 1089T977 806Q977 607 939 453T828 192T648 31T404 -24Q280 -24 175 18V147ZM531 1346Q465 1346 410 1320T315 1248T253 1140T230 1003Q230 922 251 858T313 748T409 678T535 653Q597 653 651 677T746 741T811 837T835 953Q835 1039 813 1111T750 1236T654 1317T531 1346Z"/><glyph unicode=":" horiz-adv-x="449" d="M224 852Q204 852 187 859T156 880T136 911T128 949Q128 989 156 1016T224 1044Q243 1044 260 1037T291 1018T313 988T321 949Q321 928 313 911T292 880T261 860T224 852ZM224 -20Q184 -20 156 8T128 76Q128 117 155 145T224 173Q244 173 261 166T292 146T313 115T321 76Q321 56 313 39T292 8T262 -12T224 -20Z"/><glyph unicode=";" horiz-adv-x="449" d="M231 852Q189 852 162 880T135 949Q135 990 162 1017T231 1044Q271 1044 299 1017T327 949Q327 928 319 911T298 880T267 860T231 852ZM140 -256H43L176 227H307L140 -256Z"/><glyph unicode="&lt;" horiz-adv-x="1366" d="M260 569V608L1106 1082V960L447 593V589L1106 265V142L260 569Z"/><glyph unicode="=" horiz-adv-x="1366" d="M221 747V855H1145V747H221ZM221 340V448H1145V340H221Z"/><glyph unicode="&gt;" horiz-adv-x="1366" d="M260 142V265L921 588V593L260 960V1082L1106 608V569L260 142Z"/><glyph unicode="?" horiz-adv-x="899" d="M356 398Q346 424 339 464T332 546Q332 597 348 638T390 717T450 788T522 857Q552 885 579 914T628 976T662 1046T675 1127Q675 1179 657 1219T606 1286T529 1328T433 1343Q343 1343 267 1311T125 1215V1357Q199 1408 277 1433T445 1458Q520 1458 585 1438T699 1377T775 1279T803 1143Q803 1087 788 1040T747 953T689 878T623 811Q580 770 548 738T493 675T460 614T448 545Q448 499 457 462T477 398H356ZM418 -18Q399 -18 382 -11T352 9T331 39T323 77Q323 98 330 115T351 145T381 165T418 173Q437 173 454 166T485 146T507 116T515 77Q515 57 507 40T486 9T455 -11T418 -18Z"/><glyph unicode="@" horiz-adv-x="1944" d="M1154 423Q1072 185 864 185Q789 185 732 214T637 294T580 412T560 556Q560 616 571 679T604 800T660 910T740 1000T845 1061T977 1083Q1009 1083 1041 1075T1101 1050T1151 1009T1185 952H1189L1199 1069H1305L1256 496Q1256 284 1392 284Q1443 284 1482 304T1551 358T1602 436T1635 529T1654 626T1660 718Q1660 865 1612 983T1475 1184T1262 1312T988 1357Q883 1357 791 1331T620 1258T480 1143T375 994T309 815T286 614Q286 458 335 329T475 107T694 -37T983 -88Q1231 -88 1407 -3V-112Q1224 -188 973 -188Q794 -188 646 -129T393 36T229 289T170 611Q170 727 197 834T274 1036T397 1207T562 1340T763 1425T997 1456Q1105 1456 1205 1432T1391 1364T1549 1255T1671 1109T1749 932T1777 727Q1777 669 1768 607T1738 484T1687 369T1613 274T1514 209T1387 185Q1167 185 1158 423H1154ZM974 984Q894 984 838 946T746 846T694 709T678 559Q678 496 692 445T732 359T796 304T881 285Q937 285 979 307T1053 367T1106 452T1140 553T1158 659T1164 758Q1164 870 1115 927T974 984Z"/><glyph unicode="A" horiz-adv-x="1303" d="M1115 0L957 424H342L188 0H40L586 1434H720L1263 0H1115ZM678 1183Q671 1202 664 1227T651 1284H647Q641 1252 634 1227T619 1183L387 545H912L678 1183Z"/><glyph unicode="B" horiz-adv-x="1144" d="M186 0V1434H578Q667 1434 738 1410T860 1343T938 1238T965 1104Q965 1042 948 988T899 890T821 813T715 761V757Q787 750 846 722T947 649T1012 544T1035 411Q1035 320 1002 245T910 115T768 30T587 0H186ZM319 1312V803H505Q578 803 637 822T738 877T802 964T825 1079Q825 1312 535 1312H319ZM319 683V121H566Q725 121 810 195T896 407Q896 683 521 683H319Z"/><glyph unicode="C" horiz-adv-x="1270" d="M1150 53Q984 -25 771 -25Q619 -25 495 28T284 177T149 403T101 689Q101 852 151 992T296 1236T523 1399T823 1458Q1006 1458 1150 1402V1260Q996 1337 821 1337Q682 1337 574 1289T392 1156T279 954T240 699Q240 575 275 466T378 274T549 144T786 96Q993 96 1150 183V53Z"/><glyph unicode="D" horiz-adv-x="1408" d="M186 0V1434H563Q931 1434 1119 1258T1307 736Q1307 570 1255 434T1103 202T863 53T545 0H186ZM319 1312V121H539Q687 121 803 161T1001 278T1124 470T1167 732Q1167 1312 554 1312H319Z"/><glyph unicode="E" horiz-adv-x="1030" d="M186 0V1434H885V1312H319V786H843V666H319V121H917V0H186Z"/><glyph unicode="F" horiz-adv-x="976" d="M319 1312V772H843V651H319V0H186V1434H885V1312H319Z"/><glyph unicode="G" horiz-adv-x="1386" d="M1240 99Q1019 -25 772 -25Q616 -25 492 28T281 177T148 405T101 697Q101 802 123 899T189 1081T296 1235T440 1354T620 1431T831 1458Q1044 1458 1211 1382V1235Q1027 1337 815 1337Q684 1337 578 1289T398 1157T282 959T240 710Q239 577 274 465T380 270T553 142T791 96Q973 96 1107 172V609H781V730H1240V99Z"/><glyph unicode="H" horiz-adv-x="1420" d="M1101 0V671H319V0H186V1434H319V791H1101V1434H1234V0H1101Z"/><glyph unicode="I" horiz-adv-x="503" d="M458 1434V1317H318V117H458V0H45V117H185V1317H45V1434H458Z"/><glyph unicode="J" horiz-adv-x="697" d="M521 504Q521 236 422 106T142 -24Q107 -24 76 -20T19 -5V126Q75 96 144 96Q271 96 329 196T388 504V1434H521V504Z"/><glyph unicode="K" horiz-adv-x="1133" d="M937 0L354 671Q330 700 323 712H319V0H186V1434H319V759H323Q330 770 338 780T355 801L913 1434H1082L460 742L1123 0H937Z"/><glyph unicode="L" horiz-adv-x="951" d="M186 0V1434H319V121H895V0H186Z"/><glyph unicode="M" horiz-adv-x="1772" d="M1455 0V990Q1455 1066 1467 1235H1463Q1449 1190 1438 1157T1416 1103L916 0H859L358 1096Q336 1146 313 1237H309Q313 1191 314 1132T316 1001V0H186V1434H343L830 356Q845 322 859 287T886 211H892Q906 251 917 284T946 355L1437 1434H1586V0H1455Z"/><glyph unicode="N" horiz-adv-x="1492" d="M1168 0L372 1151Q357 1173 343 1196T319 1241H314Q316 1223 317 1191T319 1111V0H186V1434H333L1116 297Q1134 270 1148 247T1175 203H1180Q1176 236 1174 277T1172 368V1434H1306V0H1168Z"/><glyph unicode="O" horiz-adv-x="1551" d="M770 -25Q615 -25 491 31T281 186T148 416T101 701Q101 869 147 1008T283 1247T501 1402T795 1458Q947 1458 1068 1404T1274 1253T1404 1024T1450 737Q1450 574 1406 435T1275 193T1062 33T770 -25ZM781 1337Q651 1337 551 1288T381 1154T277 956T240 714Q239 592 271 481T369 284T535 147T769 96Q903 96 1004 142T1174 271T1276 468T1311 717Q1311 843 1281 956T1186 1153T1021 1287T781 1337Z"/><glyph unicode="P" horiz-adv-x="1130" d="M319 558V0H186V1434H556Q669 1434 756 1406T903 1325T994 1195T1025 1019Q1025 919 990 835T890 689T730 593T517 558H319ZM319 1312V680H509Q694 680 790 766T886 1009Q886 1312 532 1312H319Z"/><glyph unicode="Q" horiz-adv-x="1551" d="M759 -24Q608 -23 486 31T279 181T147 409T101 700Q101 868 147 1007T281 1246T499 1402T797 1458Q950 1458 1071 1403T1276 1250T1404 1021T1449 735Q1449 598 1417 474T1319 250T1152 83T911 -9Q968 -71 1018 -118T1119 -197T1223 -246T1343 -263Q1359 -263 1378 -262T1416 -257T1454 -249T1487 -238V-366Q1457 -376 1413 -382T1333 -388Q1237 -388 1161 -360T1018 -282T889 -166T759 -24ZM781 1337Q651 1337 550 1288T379 1154T275 956T240 715Q241 634 256 557T300 411T373 284T475 185T606 120T769 96Q905 96 1006 142T1175 270T1276 465T1310 712Q1310 846 1279 960T1182 1158T1018 1289T781 1337Z"/><glyph unicode="R" horiz-adv-x="1181" d="M967 0L751 411Q719 472 689 513T627 578T559 613T477 624H319V0H186V1434H599Q680 1434 755 1410T890 1339T984 1221T1020 1056Q1020 980 997 916T932 803T829 719T692 667V663Q721 651 745 632T791 586T836 524T882 444L1123 0H967ZM319 1312V745H557Q629 745 689 766T791 826T857 920T881 1044Q881 1169 801 1240T568 1312H319Z"/><glyph unicode="S" horiz-adv-x="1053" d="M130 210Q166 183 209 162T298 126T390 104T478 96Q641 96 722 159T803 340Q803 397 784 439T725 519T624 592T480 675Q388 725 323 769T216 860T155 961T135 1084Q135 1171 172 1240T272 1357T419 1432T600 1458Q769 1458 883 1411V1264Q756 1337 585 1337Q521 1337 465 1322T366 1276T299 1202T274 1098Q274 1042 290 1002T343 925T439 854T585 772Q675 724 742 679T853 584T920 479T942 355Q942 261 907 190T809 71T659 0T468 -24Q434 -24 387 -19T292 -3T201 22T130 54V210Z"/><glyph unicode="T" horiz-adv-x="1060" d="M596 1312V0H463V1312H50V1434H1010V1312H596Z"/><glyph unicode="U" horiz-adv-x="1367" d="M1199 576Q1199 -25 671 -25Q168 -25 168 554V1434H301V566Q301 330 396 213T690 96Q1066 96 1066 552V1434H1199V576Z"/><glyph unicode="V" horiz-adv-x="1254" d="M681 0H551L29 1434H178L584 288Q595 256 603 224T617 156H621Q626 184 635 217T658 290L1081 1434H1225L681 0Z"/><glyph unicode="W" horiz-adv-x="1873" d="M1422 0H1283L976 1063Q965 1101 959 1136T951 1204H947Q943 1146 918 1065L600 0H461L38 1434H186L502 309Q513 272 519 239T530 174H534Q540 219 567 309L903 1434H1008L1323 305Q1332 271 1339 239T1350 175H1354Q1356 195 1362 220T1376 276L1690 1434H1835L1422 0Z"/><glyph unicode="X" horiz-adv-x="1180" d="M967 0L637 548Q626 567 614 589T594 633H589Q579 613 569 592T544 548L206 0H43L510 722L76 1434H238L545 912Q559 889 571 865T597 814H601Q615 843 628 868T655 914L967 1434H1121L681 724L1129 0H967Z"/><glyph unicode="Y" horiz-adv-x="1119" d="M617 537V0H484V534L34 1434H185L513 764Q519 752 529 728T553 667H556Q562 685 573 709T600 763L943 1434H1085L617 537Z"/><glyph unicode="Z" horiz-adv-x="1167" d="M249 121H1088V0H49V39L900 1312H117V1434H1105V1400L249 121Z"/><glyph unicode="[" horiz-adv-x="598" d="M204 -326V1434H547V1332H323V-224H547V-326H204Z"/><glyph unicode="\" horiz-adv-x="763" d="M657 -239L-27 1434H98L779 -239H657Z"/><glyph unicode="]" horiz-adv-x="598" d="M52 -326V-224H275V1332H52V1434H394V-326H52Z"/><glyph unicode="^" horiz-adv-x="1366" d="M999 663L680 1279H675L366 663H245L648 1458H701L1122 663H999Z"/><glyph unicode="_" horiz-adv-x="850" d="M0 -282V-178H850V-282H0Z"/><glyph unicode="`" horiz-adv-x="528" d="M334 1203L79 1531H215L442 1203H334Z"/><glyph unicode="a" horiz-adv-x="1026" d="M755 0V182H751Q701 84 615 30T419 -24Q345 -24 286 -3T185 56T121 149T98 268Q98 407 184 489T444 597L755 642Q755 937 526 937Q347 937 194 806V946Q226 969 266 987T352 1019T444 1040T537 1048Q708 1048 795 952T883 666V0H755ZM491 497Q422 487 373 472T292 432T245 369T230 276Q230 235 244 200T286 140T353 100T443 86Q511 86 568 112T666 184T731 294T755 433V534L491 497Z"/><glyph unicode="b" horiz-adv-x="1175" d="M293 165V0H165V1516H293V828H297Q354 935 449 991T665 1048Q763 1048 840 1013T971 911T1053 752T1082 545Q1082 418 1050 314T957 134T812 18T620 -24Q403 -24 297 165H293ZM293 426Q293 356 316 295T382 187T483 113T615 86Q692 86 754 118T859 211T926 356T950 546Q950 636 928 708T866 832T768 910T639 937Q559 937 495 908T386 827T317 708T293 562V426Z"/><glyph unicode="c" horiz-adv-x="927" d="M846 46Q732 -23 570 -25Q460 -26 372 13T222 121T127 285T94 491Q94 606 129 707T231 884T395 1004T617 1048Q744 1048 849 999V863Q737 937 607 937Q516 937 445 903T326 809T252 670T226 501Q226 419 247 344T313 212T426 120T586 86Q730 86 846 172V46Z"/><glyph unicode="d" horiz-adv-x="1176" d="M883 0V180H879Q828 83 734 30T519 -24Q423 -24 345 11T210 114T124 276T93 491Q93 615 126 717T221 893T369 1007T562 1048Q783 1048 879 871H883V1516H1011V0H883ZM883 618Q883 685 860 743T796 844T698 912T571 937Q495 937 431 907T322 821T251 683T225 499Q225 402 248 325T313 195T415 114T546 86Q624 86 686 114T792 191T859 306T883 447V618Z"/><glyph unicode="e" horiz-adv-x="1052" d="M226 489Q227 395 251 320T320 193T429 114T575 86Q748 86 902 207V81Q755 -24 546 -24Q443 -24 359 12T216 116T125 285T93 513Q93 628 128 726T225 895T372 1007T558 1048Q657 1048 733 1014T860 915T939 759T966 553V489H226ZM834 601Q831 761 758 849T555 937Q490 937 435 914T337 848T268 742T229 601H834Z"/><glyph unicode="f" horiz-adv-x="603" d="M642 1395Q599 1423 531 1423Q351 1423 351 1188V1024H606V912H351V0H223V912H44V1024H223V1196Q223 1273 242 1335T300 1442T395 1511T528 1535Q600 1535 642 1516V1395Z"/><glyph unicode="g" horiz-adv-x="1176" d="M1011 79Q1011 -206 882 -343T482 -481Q314 -481 164 -406V-276Q331 -369 482 -369Q883 -369 883 55V178H879Q761 -24 519 -24Q424 -24 346 11T211 112T124 272T93 486Q93 612 126 715T220 893T367 1007T562 1048Q779 1048 879 872H883V1024H1011V79ZM883 622Q883 686 860 743T796 843T699 911T574 937Q494 937 430 906T320 818T250 680T225 496Q225 402 248 326T313 197T414 115T547 86Q623 86 685 113T791 189T859 303T883 445V622Z"/><glyph unicode="h" horiz-adv-x="1127" d="M856 0V602Q856 774 794 855T601 937Q539 937 483 912T385 840T318 726T293 573V0H165V1516H293V847H297Q417 1048 641 1048Q812 1048 898 943T984 633V0H856Z"/><glyph unicode="i" horiz-adv-x="458" d="M228 1283Q191 1283 164 1309T137 1375Q137 1414 164 1439T228 1465Q247 1465 264 1459T293 1440T313 1412T321 1375Q321 1356 314 1339T294 1310T265 1290T228 1283ZM165 0V1024H293V0H165Z"/><glyph unicode="j" horiz-adv-x="458" d="M293 36Q293 -218 203 -350T-84 -482Q-154 -482 -225 -448V-324Q-147 -370 -77 -370Q165 -370 165 14V1024H293V36ZM228 1283Q191 1283 164 1309T137 1375Q137 1414 164 1439T228 1465Q247 1465 264 1459T293 1440T313 1412T321 1375Q321 1356 314 1339T294 1310T265 1290T228 1283Z"/><glyph unicode="k" horiz-adv-x="963" d="M768 0L297 499H293V0H165V1516H293V547H297L744 1024H911L431 529L949 0H768Z"/><glyph unicode="l" horiz-adv-x="458" d="M165 0V1516H293V0H165Z"/><glyph unicode="m" horiz-adv-x="1723" d="M1452 0V602Q1452 694 1438 757T1395 861T1320 919T1211 937Q1155 937 1105 911T1018 838T959 728T937 592V0H809V615Q809 937 562 937Q505 937 456 912T371 840T314 730T293 587V0H165V1024H293V858H297Q405 1048 612 1048Q666 1048 714 1032T800 986T865 915T907 825Q961 934 1047 991T1243 1048Q1580 1048 1580 632V0H1452Z"/><glyph unicode="n" horiz-adv-x="1127" d="M856 0V590Q856 937 604 937Q537 937 480 911T382 837T317 726T293 586V0H165V1024H293V846H297Q411 1048 640 1048Q808 1048 896 939T984 624V0H856Z"/><glyph unicode="o" horiz-adv-x="1174" d="M584 -24Q470 -24 380 14T225 121T127 288T93 503Q93 631 129 732T231 903T392 1011T602 1048Q713 1048 802 1012T953 906T1048 738T1081 513Q1081 393 1047 295T948 125T792 15T584 -24ZM594 937Q510 937 442 908T326 824T251 688T225 505Q225 409 251 332T324 200T440 116T592 86Q678 86 744 114T856 197T925 331T949 511Q949 718 857 827T594 937Z"/><glyph unicode="p" horiz-adv-x="1175" d="M293 165V-471H165V1024H293V828H297Q354 935 449 991T665 1048Q763 1048 840 1013T971 912T1053 754T1082 545Q1082 418 1050 314T958 134T813 18T620 -24Q404 -24 297 165H293ZM293 426Q293 356 316 295T382 187T483 113T615 86Q692 86 754 118T859 211T926 356T950 546Q950 636 928 708T866 832T768 910T639 937Q559 937 495 908T386 827T317 708T293 562V426Z"/><glyph unicode="q" horiz-adv-x="1176" d="M883 -471V182H879Q770 -24 519 -24Q422 -24 343 12T209 115T123 277T93 492Q93 620 127 722T224 897T372 1009T564 1048Q783 1048 879 870H883V1024H1011V-471H883ZM883 612Q883 681 861 740T797 843T698 912T569 937Q493 937 430 908T322 822T251 684T225 496Q225 400 248 324T313 195T413 114T541 86Q623 86 686 114T793 192T860 307T883 449V612Z"/><glyph unicode="r" horiz-adv-x="694" d="M673 893Q628 926 557 926Q506 926 467 907T399 854T349 778T316 687T298 592T292 501V0H165V1024H292V805H296Q314 861 341 905T405 980T483 1027T573 1043Q604 1043 628 1039T673 1027V893Z"/><glyph unicode="s" horiz-adv-x="832" d="M107 184Q136 161 170 143T240 112T312 93T382 86Q610 86 610 257Q610 296 594 324T548 376T476 420T381 462Q310 491 259 521T175 586T126 664T110 761Q110 829 139 882T219 972T334 1028T472 1048Q605 1048 704 998V863Q589 937 456 937Q408 937 369 925T301 891T258 839T242 771Q242 733 254 705T291 653T357 609T456 564Q530 534 584 505T673 441T725 364T742 265Q742 196 714 142T635 51T516 -5T368 -24Q213 -24 107 41V184Z"/><glyph unicode="t" horiz-adv-x="651" d="M605 12Q539 -21 461 -21Q213 -21 213 265V912H33V1024H213V1282L341 1324V1024H605V912H341V285Q341 181 375 135T490 89Q550 89 605 125V12Z"/><glyph unicode="u" horiz-adv-x="1128" d="M835 0V174H831Q727 -24 508 -24Q143 -24 143 422V1024H271V446Q271 262 336 174T537 86Q603 86 657 111T751 183T813 295T835 439V1024H963V0H835Z"/><glyph unicode="v" horiz-adv-x="954" d="M530 0H408L16 1024H157L440 244Q466 173 473 119H477Q489 191 508 240L801 1024H938L530 0Z"/><glyph unicode="w" horiz-adv-x="1433" d="M1090 0H962L745 752Q735 787 729 843H725Q723 828 719 806T704 754L465 0H340L30 1024H167L392 230Q402 195 406 141H414Q416 159 420 182T433 231L681 1024H787L1009 229Q1018 195 1024 140H1032Q1031 157 1036 179T1049 229L1274 1024H1403L1090 0Z"/><glyph unicode="x" horiz-adv-x="902" d="M526 504L862 0H708L500 339Q488 358 476 378T450 421H446Q441 411 431 395T405 353L181 0H30L376 501L41 1024H190L403 665Q419 638 431 617T451 581H455Q468 600 479 619T502 659L728 1024H872L526 504Z"/><glyph unicode="y" horiz-adv-x="959" d="M462 -186Q402 -336 324 -408T135 -481Q80 -481 42 -468V-348Q64 -356 86 -360T132 -364Q195 -364 241 -325T322 -205L411 5L17 1024H159L452 213Q458 197 463 177T474 136H479Q484 153 488 170T501 209L812 1024H947L462 -186Z"/><glyph unicode="z" horiz-adv-x="938" d="M240 112H871V0H45V43L688 912H98V1024H886V988L240 112Z"/><glyph unicode="{" horiz-adv-x="598" d="M530 -326Q390 -322 320 -250T249 -25V273Q249 383 210 442T93 509V599Q249 616 249 828V1131Q249 1285 319 1357T530 1434V1328Q445 1323 408 1273T371 1111V818Q371 601 223 556V552Q371 506 371 283V1Q371 -57 379 -98T406 -166T455 -206T530 -221V-326Z"/><glyph unicode="|" horiz-adv-x="476" d="M178 -481V1566H299V-481H178Z"/><glyph unicode="}" horiz-adv-x="598" d="M505 509Q350 492 350 273V-25Q350 -178 280 -250T69 -326V-221Q110 -220 140 -208T189 -171T218 -103T228 1V283Q228 505 376 552V556Q228 603 228 818V1111Q228 1170 218 1210T189 1276T139 1314T69 1328V1434Q209 1430 279 1358T350 1131V828Q350 614 505 599V509Z"/><glyph unicode="~" horiz-adv-x="1366" d="M1140 730Q1133 599 1066 527T884 454Q781 454 651 551Q549 626 483 626Q343 626 334 459H227Q230 523 249 574T301 661T380 716T484 735Q584 735 699 651Q734 626 760 609T809 581T851 566T890 561Q954 561 991 605T1034 730H1140Z"/><glyph unicode=" " horiz-adv-x="561"/><glyph unicode="¡" horiz-adv-x="582" d="M292 853Q252 853 224 880T195 948Q195 968 202 985T223 1016T254 1036T292 1044Q312 1044 329 1037T359 1016T379 986T387 948Q387 908 360 881T292 853ZM224 -407L239 623H349L363 -407H224Z"/><glyph unicode="¢" horiz-adv-x="1079" d="M927 209Q834 152 706 140V-53H598V141Q498 152 420 195T287 305T204 462T175 653Q175 753 202 843T282 1006T415 1130T598 1203V1409H706V1211Q828 1209 929 1162V1024Q827 1090 706 1096V252Q834 264 927 335V209ZM598 1087Q525 1070 471 1030T380 934T325 809T307 665Q307 595 323 528T375 406T466 312T598 258V1087Z"/><glyph unicode="£" horiz-adv-x="1079" d="M93 0V110Q326 197 326 449V648H113V764H326V1036Q326 1129 353 1206T430 1340T549 1427T702 1458Q807 1458 900 1420V1295Q804 1346 701 1346Q580 1346 517 1264T454 1021V764H755V648H454V482Q454 214 251 112H977V0H93Z"/><glyph unicode="¤" horiz-adv-x="1138" d="M946 275L810 412Q705 331 569 331Q431 331 329 412L192 275L116 354L254 486Q174 599 174 725Q174 861 254 963L116 1098L192 1176L329 1040Q440 1121 569 1121Q702 1121 808 1040L946 1176L1022 1098L884 963Q965 857 965 725Q965 599 884 486L1022 354L946 275ZM570 1013Q510 1013 458 990T366 928T305 837T282 727Q282 669 305 617T367 525T459 462T569 439Q627 439 679 462T771 524T834 616T857 727Q857 786 834 838T770 929T678 990T570 1013Z"/><glyph unicode="¥" horiz-adv-x="1079" d="M644 761H958V650H605V424H958V312H605V0H477V312H119V424H477V650H119V761H435L71 1434H218L496 891Q529 826 543 787H548Q556 814 567 841T594 896L875 1434H1013L644 761Z"/><glyph unicode="¦" horiz-adv-x="476" d="M178 715V1566H299V715H178ZM178 -481V370H299V-481H178Z"/><glyph unicode="§" horiz-adv-x="918" d="M638 409Q685 372 706 324T728 215Q728 154 704 103T635 14T529 -45T393 -66Q274 -66 165 -13V115Q290 46 399 46Q496 46 547 90T598 207Q598 261 564 302Q556 318 526 339T447 386L364 430Q303 462 262 497T196 570T159 649T148 735Q148 902 303 985Q188 1067 188 1206Q188 1268 211 1320T276 1411T379 1470T513 1491Q634 1491 720 1451V1324Q628 1379 510 1379Q320 1379 320 1213Q320 1179 329 1152T365 1099T443 1043T576 975Q683 925 736 853T789 689Q789 523 638 409ZM402 925Q279 868 279 744Q279 702 291 669T335 605T418 544T548 479Q603 521 630 566T657 680Q657 718 647 748T608 806T530 862T402 925Z"/><glyph unicode="¨" horiz-adv-x="832" d="M592 1203Q559 1203 534 1226T508 1288Q508 1325 532 1348T590 1372Q626 1372 652 1348T678 1288Q678 1252 654 1228T592 1203ZM234 1203Q216 1203 201 1209T173 1227T154 1254T147 1288Q147 1325 172 1348T231 1372Q249 1372 265 1366T293 1348T312 1322T319 1288Q319 1252 294 1228T234 1203Z"/><glyph unicode="©" horiz-adv-x="1813" d="M159 714Q159 817 185 912T261 1091T378 1243T529 1360T708 1435T907 1462Q1010 1462 1105 1436T1284 1360T1436 1243T1553 1092T1628 913T1655 714Q1655 611 1629 516T1553 337T1436 185T1285 68T1106 -7T907 -34Q804 -34 709 -8T530 68T378 185T261 336T186 515T159 714ZM240 714Q240 576 292 455T435 243T647 100T907 47Q1045 47 1166 99T1378 242T1521 454T1574 714Q1574 852 1522 973T1379 1185T1167 1328T907 1381Q769 1381 648 1329T436 1186T293 974T240 714ZM1197 268Q1079 198 938 198Q837 198 747 235T590 337T483 493T444 691Q444 804 479 902T580 1072T743 1187T960 1229Q1090 1229 1193 1175V1057Q1094 1122 943 1122Q857 1122 787 1091T667 1004T590 873T562 710Q562 628 589 554T667 424T790 336T952 303Q1091 303 1197 376V268Z"/><glyph unicode="ª" horiz-adv-x="774" d="M558 717V838H554Q516 771 453 735T311 699Q258 699 215 714T142 758T96 823T79 906Q79 1108 331 1142L558 1173Q558 1359 399 1359Q266 1359 145 1270V1382Q264 1455 409 1455Q535 1455 601 1385T667 1181V717H558ZM406 1064Q351 1057 310 1047T242 1019T202 975T189 911Q189 857 227 824T334 790Q379 790 420 809T504 878Q532 910 545 948T558 1029V1085L406 1064Z"/><glyph unicode="«" horiz-adv-x="994" d="M398 200L110 536L398 880H532L245 536L532 200H398ZM750 200L462 536L750 880H884L597 536L884 200H750Z"/><glyph unicode="¬" horiz-adv-x="1366" d="M1037 200V619H222V728H1146V200H1037Z"/><glyph unicode="­" horiz-adv-x="817" d="M144 530V640H691V530H144Z"/><glyph unicode="®" horiz-adv-x="1813" d="M1134 245L1025 483Q981 580 936 619T839 659H736V245H624V1205H890Q971 1205 1034 1187T1141 1135T1207 1054T1230 948Q1230 842 1167 775T983 684V680Q1065 663 1142 505L1268 245H1134ZM736 1112V751H905Q1003 751 1057 799T1111 932Q1111 1026 1055 1069T881 1112H736ZM159 714Q159 817 185 912T261 1091T378 1243T529 1360T708 1435T907 1462Q1010 1462 1105 1436T1284 1360T1436 1243T1553 1092T1628 913T1655 714Q1655 611 1629 516T1553 337T1436 185T1285 68T1106 -7T907 -34Q804 -34 709 -8T530 68T378 185T261 336T186 515T159 714ZM240 714Q240 576 292 455T435 243T647 100T907 47Q1045 47 1166 99T1378 242T1521 454T1574 714Q1574 852 1522 973T1379 1185T1167 1328T907 1381Q769 1381 648 1329T436 1186T293 974T240 714Z"/><glyph unicode="¯" horiz-adv-x="850" d="M0 1411V1516H850V1411H0Z"/><glyph unicode="°" horiz-adv-x="781" d="M126 1177Q126 1232 146 1280T203 1364T287 1421T390 1442Q445 1442 493 1421T577 1364T634 1280T655 1177Q655 1122 634 1074T577 990T493 934T390 913Q335 913 287 933T203 990T147 1074T126 1177ZM227 1178Q227 1144 239 1114T274 1060T327 1024T391 1010Q425 1010 454 1024T506 1061T540 1115T553 1178Q553 1212 542 1242T509 1295T457 1331T391 1345Q356 1345 326 1332T274 1295T240 1242T227 1178Z"/><glyph unicode="±" horiz-adv-x="1366" d="M738 642V234H631V642H222V750H631V1158H738V750H1146V642H738ZM222 0V108H1146V0H222Z"/><glyph unicode="²" horiz-adv-x="712" d="M627 884H91V991L330 1226Q387 1282 421 1321T473 1393T497 1452T503 1509Q503 1577 465 1614T355 1651Q240 1651 136 1551V1677Q234 1754 367 1754Q426 1754 472 1737T550 1690T600 1616T617 1522Q617 1484 606 1445T570 1362T505 1271T405 1165L227 994V990H627V884Z"/><glyph unicode="³" horiz-adv-x="712" d="M607 1119Q607 1062 586 1015T527 934T434 880T311 861Q190 861 108 911V1030Q211 960 314 960Q400 960 448 1002T496 1116Q496 1270 269 1270H192V1369H263Q469 1369 469 1522Q469 1650 320 1650Q236 1650 141 1589V1704Q234 1752 343 1752Q396 1752 439 1737T514 1694T561 1627T578 1541Q578 1384 432 1331V1327Q519 1307 563 1253T607 1119Z"/><glyph unicode="´" horiz-adv-x="543" d="M244 1203H136L364 1531H499L244 1203Z"/><glyph unicode="µ" horiz-adv-x="1149" d="M869 0Q857 83 857 177H853Q759 -24 548 -24Q376 -24 298 99H292V-393H165V1024H292V426Q292 263 359 177T559 90Q626 90 680 115T774 187T834 297T855 441V1024H984V260Q984 181 988 116T1000 0H869Z"/><glyph unicode="¶" horiz-adv-x="954" d="M719 1339V0H623V1339H445V0H348V903Q294 903 249 923T170 979T117 1063T98 1168Q98 1228 118 1277T174 1361T255 1415T354 1434H849V1339H719Z"/><glyph unicode="·" horiz-adv-x="449" d="M224 608Q184 608 156 636T128 704Q128 745 155 773T224 801Q244 801 261 794T292 774T313 743T321 704Q321 684 313 667T292 636T262 616T224 608Z"/><glyph unicode="¸" horiz-adv-x="416" d="M391 -260Q391 -433 126 -433Q89 -433 54 -430V-348Q101 -354 132 -354Q282 -354 282 -263Q282 -181 145 -181Q134 -181 122 -182T93 -185V0H183V-111Q283 -111 337 -149T391 -260Z"/><glyph unicode="¹" horiz-adv-x="712" d="M634 884H146V981H336V1619L135 1556V1663L444 1758V981H634V884Z"/><glyph unicode="º" horiz-adv-x="846" d="M428 696Q347 696 282 723T170 799T100 918T75 1071Q75 1161 101 1232T176 1353T291 1428T439 1454Q519 1454 583 1428T692 1354T761 1236T785 1079Q785 995 760 925T689 803T576 724T428 696ZM434 1359Q378 1359 333 1339T256 1282T207 1192T189 1072Q189 1008 205 957T253 869T330 813T432 793Q488 793 532 812T607 868T654 957T671 1076Q671 1142 655 1194T608 1283T534 1339T434 1359Z"/><glyph unicode="»" horiz-adv-x="994" d="M596 880L884 544L596 200H462L749 544L462 880H596ZM244 880L532 544L244 200H110L397 544L110 880H244Z"/><glyph unicode="¼" horiz-adv-x="1513" d="M871 584H383V681H573V1319L372 1256V1363L681 1458V681H871V584ZM444 0H323L1183 1434H1303L444 0ZM1365 212V1H1258V212H865V290L1242 851H1365V306H1475V212H1365ZM1257 733Q1235 687 1215 658L983 306H1258V651Q1258 687 1261 733H1257Z"/><glyph unicode="½" horiz-adv-x="1647" d="M871 584H383V681H573V1319L372 1256V1363L681 1458V681H871V584ZM444 0H323L1183 1434H1303L444 0ZM1547 1H1011V108L1250 343Q1307 399 1341 438T1393 510T1417 569T1423 626Q1423 694 1385 731T1275 768Q1160 768 1056 668V794Q1154 871 1287 871Q1346 871 1392 854T1470 807T1520 733T1537 639Q1537 601 1526 562T1490 479T1425 388T1325 282L1147 111V107H1547V1Z"/><glyph unicode="¾" horiz-adv-x="1513" d="M844 819Q844 762 823 715T764 634T671 580T548 561Q427 561 345 611V730Q448 660 551 660Q637 660 685 702T733 816Q733 970 506 970H429V1069H500Q706 1069 706 1222Q706 1350 557 1350Q473 1350 378 1289V1404Q471 1452 580 1452Q633 1452 676 1437T751 1394T798 1327T815 1241Q815 1084 669 1031V1027Q756 1007 800 953T844 819ZM444 0H323L1183 1434H1303L444 0ZM1365 212V1H1258V212H865V290L1242 851H1365V306H1475V212H1365ZM1257 733Q1235 687 1215 658L983 306H1258V651Q1258 687 1261 733H1257Z"/><glyph unicode="¿" horiz-adv-x="899" d="M591 628Q600 602 607 562T615 480Q615 429 599 387T557 308T496 237T425 168Q395 140 368 111T319 49T285 -21T272 -101Q272 -153 290 -193T341 -260T418 -302T514 -317Q604 -317 680 -285T822 -189V-331Q748 -382 669 -407T501 -432Q426 -432 361 -412T248 -351T171 -253T143 -117Q143 -61 158 -15T199 72T257 146T323 214Q366 255 398 287T453 350T486 412T498 481Q498 527 489 564T470 628H591ZM528 1044Q548 1044 565 1037T595 1016T615 986T623 948Q623 928 616 911T595 881T565 861T528 853Q486 853 459 880T432 948Q432 968 439 985T460 1016T491 1036T528 1044Z"/><glyph unicode="À" horiz-adv-x="1303" d="M1115 0L957 424H342L188 0H40L586 1434H720L1263 0H1115ZM678 1183Q671 1202 664 1227T651 1284H647Q641 1252 634 1227T619 1183L387 545H912L678 1183ZM675 1551L420 1879H556L783 1551H675Z"/><glyph unicode="Á" horiz-adv-x="1303" d="M1115 0L957 424H342L188 0H40L586 1434H720L1263 0H1115ZM678 1183Q671 1202 664 1227T651 1284H647Q641 1252 634 1227T619 1183L387 545H912L678 1183ZM584 1551H476L704 1879H839L584 1551Z"/><glyph unicode="Â" horiz-adv-x="1303" d="M1115 0L957 424H342L188 0H40L586 1434H720L1263 0H1115ZM678 1183Q671 1202 664 1227T651 1284H647Q641 1252 634 1227T619 1183L387 545H912L678 1183ZM802 1551L641 1785L479 1551H381L599 1885H688L906 1551H802Z"/><glyph unicode="Ã" horiz-adv-x="1303" d="M1115 0L957 424H342L188 0H40L586 1434H720L1263 0H1115ZM678 1183Q671 1202 664 1227T651 1284H647Q641 1252 634 1227T619 1183L387 545H912L678 1183ZM971 1788Q971 1737 959 1695T923 1623T867 1575T792 1558Q724 1558 636 1622Q566 1671 517 1671Q422 1671 422 1543H339Q339 1594 351 1636T387 1708T443 1754T518 1771Q586 1771 672 1709Q743 1658 795 1658Q836 1658 860 1690T885 1788H971Z"/><glyph unicode="Ä" horiz-adv-x="1303" d="M1115 0L957 424H342L188 0H40L586 1434H720L1263 0H1115ZM678 1183Q671 1202 664 1227T651 1284H647Q641 1252 634 1227T619 1183L387 545H912L678 1183ZM825 1551Q792 1551 767 1574T741 1636Q741 1673 765 1696T823 1720Q859 1720 885 1696T911 1636Q911 1600 887 1576T825 1551ZM467 1551Q449 1551 434 1557T406 1575T387 1602T380 1636Q380 1673 405 1696T464 1720Q482 1720 498 1714T526 1696T545 1670T552 1636Q552 1600 527 1576T467 1551Z"/><glyph unicode="Å" horiz-adv-x="1304" d="M1115 0L957 424H342L188 0H40L564 1376Q447 1423 447 1546Q447 1588 463 1623T507 1684T572 1724T653 1738Q696 1738 732 1724T796 1686T838 1626T854 1549Q854 1429 740 1379L1263 0H1115ZM650 1663Q596 1663 563 1632T530 1549Q530 1494 562 1464T650 1434Q703 1434 737 1466T772 1549Q772 1575 763 1596T737 1632T698 1655T650 1663ZM690 1151Q679 1180 670 1209T651 1284H647Q641 1252 634 1227T619 1183L387 545H912L690 1151Z"/><glyph unicode="Æ" horiz-adv-x="1734" d="M877 0V424H371L165 0H13L711 1434H1575V1309H1009V785H1534V665H1009V121H1607V0H877ZM877 1309H790L426 545H877V1309Z"/><glyph unicode="Ç" horiz-adv-x="1270" d="M1150 53Q984 -25 771 -25Q619 -25 495 28T284 177T149 403T101 689Q101 852 151 992T296 1236T523 1399T823 1458Q1006 1458 1150 1402V1260Q996 1337 821 1337Q682 1337 574 1289T392 1156T279 954T240 699Q240 575 275 466T378 274T549 144T786 96Q993 96 1150 183V53ZM952 -260Q952 -433 687 -433Q650 -433 615 -430V-348Q662 -354 693 -354Q843 -354 843 -263Q843 -181 706 -181Q695 -181 683 -182T654 -185V0H744V-111Q844 -111 898 -149T952 -260Z"/><glyph unicode="È" horiz-adv-x="1030" d="M186 0V1434H885V1312H319V786H843V666H319V121H917V0H186ZM566 1551L311 1879H447L674 1551H566Z"/><glyph unicode="É" horiz-adv-x="1030" d="M186 0V1434H885V1312H319V786H843V666H319V121H917V0H186ZM523 1551H415L643 1879H778L523 1551Z"/><glyph unicode="Ê" horiz-adv-x="1030" d="M186 0V1434H885V1312H319V786H843V666H319V121H917V0H186ZM702 1551L541 1785L379 1551H281L499 1885H588L806 1551H702Z"/><glyph unicode="Ë" horiz-adv-x="1030" d="M186 0V1434H885V1312H319V786H843V666H319V121H917V0H186ZM731 1551Q698 1551 673 1574T647 1636Q647 1673 671 1696T729 1720Q765 1720 791 1696T817 1636Q817 1600 793 1576T731 1551ZM373 1551Q355 1551 340 1557T312 1575T293 1602T286 1636Q286 1673 311 1696T370 1720Q388 1720 404 1714T432 1696T451 1670T458 1636Q458 1600 433 1576T373 1551Z"/><glyph unicode="Ì" horiz-adv-x="503" d="M458 1434V1317H318V117H458V0H45V117H185V1317H45V1434H458ZM251 1551L-4 1879H132L359 1551H251Z"/><glyph unicode="Í" horiz-adv-x="503" d="M458 1434V1317H318V117H458V0H45V117H185V1317H45V1434H458ZM253 1551H145L373 1879H508L253 1551Z"/><glyph unicode="Î" horiz-adv-x="503" d="M458 1434V1317H318V117H458V0H45V117H185V1317H45V1434H458ZM414 1551L253 1785L91 1551H-7L211 1885H300L518 1551H414Z"/><glyph unicode="Ï" horiz-adv-x="503" d="M458 1434V1317H318V117H458V0H45V117H185V1317H45V1434H458ZM434 1551Q401 1551 376 1574T350 1636Q350 1673 374 1696T432 1720Q468 1720 494 1696T520 1636Q520 1600 496 1576T434 1551ZM76 1551Q58 1551 43 1557T15 1575T-4 1602T-11 1636Q-11 1673 14 1696T73 1720Q91 1720 107 1714T135 1696T154 1670T161 1636Q161 1600 136 1576T76 1551Z"/><glyph unicode="Ð" horiz-adv-x="1408" d="M31 776H186V1434H563Q931 1434 1119 1258T1307 736Q1307 570 1255 434T1103 202T863 53T545 0H186V654H31V776ZM319 1312V776H689V654H319V121H539Q687 121 803 161T1001 278T1124 470T1167 732Q1167 1312 554 1312H319Z"/><glyph unicode="Ñ" horiz-adv-x="1492" d="M1168 0L372 1151Q357 1173 343 1196T319 1241H314Q316 1223 317 1191T319 1111V0H186V1434H333L1116 297Q1134 270 1148 247T1175 203H1180Q1176 236 1174 277T1172 368V1434H1306V0H1168ZM1107 1788Q1107 1737 1095 1695T1059 1623T1003 1575T928 1558Q860 1558 772 1622Q702 1671 653 1671Q558 1671 558 1543H475Q475 1594 487 1636T523 1708T579 1754T654 1771Q722 1771 808 1709Q879 1658 931 1658Q972 1658 996 1690T1021 1788H1107Z"/><glyph unicode="Ò" horiz-adv-x="1551" d="M770 -25Q615 -25 491 31T281 186T148 416T101 701Q101 869 147 1008T283 1247T501 1402T795 1458Q947 1458 1068 1404T1274 1253T1404 1024T1450 737Q1450 574 1406 435T1275 193T1062 33T770 -25ZM781 1337Q651 1337 551 1288T381 1154T277 956T240 714Q239 592 271 481T369 284T535 147T769 96Q903 96 1004 142T1174 271T1276 468T1311 717Q1311 843 1281 956T1186 1153T1021 1287T781 1337ZM809 1551L554 1879H690L917 1551H809Z"/><glyph unicode="Ó" horiz-adv-x="1551" d="M770 -25Q615 -25 491 31T281 186T148 416T101 701Q101 869 147 1008T283 1247T501 1402T795 1458Q947 1458 1068 1404T1274 1253T1404 1024T1450 737Q1450 574 1406 435T1275 193T1062 33T770 -25ZM781 1337Q651 1337 551 1288T381 1154T277 956T240 714Q239 592 271 481T369 284T535 147T769 96Q903 96 1004 142T1174 271T1276 468T1311 717Q1311 843 1281 956T1186 1153T1021 1287T781 1337ZM748 1551H640L868 1879H1003L748 1551Z"/><glyph unicode="Ô" horiz-adv-x="1551" d="M770 -25Q615 -25 491 31T281 186T148 416T101 701Q101 869 147 1008T283 1247T501 1402T795 1458Q947 1458 1068 1404T1274 1253T1404 1024T1450 737Q1450 574 1406 435T1275 193T1062 33T770 -25ZM781 1337Q651 1337 551 1288T381 1154T277 956T240 714Q239 592 271 481T369 284T535 147T769 96Q903 96 1004 142T1174 271T1276 468T1311 717Q1311 843 1281 956T1186 1153T1021 1287T781 1337ZM938 1551L777 1785L615 1551H517L735 1885H824L1042 1551H938Z"/><glyph unicode="Õ" horiz-adv-x="1551" d="M770 -25Q615 -25 491 31T281 186T148 416T101 701Q101 869 147 1008T283 1247T501 1402T795 1458Q947 1458 1068 1404T1274 1253T1404 1024T1450 737Q1450 574 1406 435T1275 193T1062 33T770 -25ZM781 1337Q651 1337 551 1288T381 1154T277 956T240 714Q239 592 271 481T369 284T535 147T769 96Q903 96 1004 142T1174 271T1276 468T1311 717Q1311 843 1281 956T1186 1153T1021 1287T781 1337ZM1097 1788Q1097 1737 1085 1695T1049 1623T993 1575T918 1558Q850 1558 762 1622Q692 1671 643 1671Q548 1671 548 1543H465Q465 1594 477 1636T513 1708T569 1754T644 1771Q712 1771 798 1709Q869 1658 921 1658Q962 1658 986 1690T1011 1788H1097Z"/><glyph unicode="Ö" horiz-adv-x="1551" d="M770 -25Q615 -25 491 31T281 186T148 416T101 701Q101 869 147 1008T283 1247T501 1402T795 1458Q947 1458 1068 1404T1274 1253T1404 1024T1450 737Q1450 574 1406 435T1275 193T1062 33T770 -25ZM781 1337Q651 1337 551 1288T381 1154T277 956T240 714Q239 592 271 481T369 284T535 147T769 96Q903 96 1004 142T1174 271T1276 468T1311 717Q1311 843 1281 956T1186 1153T1021 1287T781 1337ZM958 1551Q925 1551 900 1574T874 1636Q874 1673 898 1696T956 1720Q992 1720 1018 1696T1044 1636Q1044 1600 1020 1576T958 1551ZM600 1551Q582 1551 567 1557T539 1575T520 1602T513 1636Q513 1673 538 1696T597 1720Q615 1720 631 1714T659 1696T678 1670T685 1636Q685 1600 660 1576T600 1551Z"/><glyph unicode="×" horiz-adv-x="1366" d="M1019 183L683 521L347 183L270 260L607 596L270 934L347 1010L683 672L1019 1010L1096 934L759 596L1096 260L1019 183Z"/><glyph unicode="Ø" horiz-adv-x="1551" d="M770 -25Q632 -25 520 19T323 142L159 -53L89 5L260 209Q182 306 142 431T101 701Q101 869 147 1008T283 1247T501 1402T795 1458Q915 1458 1015 1424T1195 1327L1333 1492L1404 1434L1262 1265Q1353 1168 1401 1033T1450 737Q1450 574 1406 435T1275 193T1062 33T770 -25ZM1311 717Q1311 848 1279 963T1177 1163L405 241Q471 173 561 135T769 96Q903 96 1004 142T1174 271T1276 468T1311 717ZM781 1337Q651 1337 551 1288T381 1154T277 956T240 714Q239 602 265 499T347 313L1113 1229Q1050 1280 969 1308T781 1337Z"/><glyph unicode="Ù" horiz-adv-x="1367" d="M1199 576Q1199 -25 671 -25Q168 -25 168 554V1434H301V566Q301 330 396 213T690 96Q1066 96 1066 552V1434H1199V576ZM693 1551L438 1879H574L801 1551H693Z"/><glyph unicode="Ú" horiz-adv-x="1367" d="M1199 576Q1199 -25 671 -25Q168 -25 168 554V1434H301V566Q301 330 396 213T690 96Q1066 96 1066 552V1434H1199V576ZM680 1551H572L800 1879H935L680 1551Z"/><glyph unicode="Û" horiz-adv-x="1367" d="M1199 576Q1199 -25 671 -25Q168 -25 168 554V1434H301V566Q301 330 396 213T690 96Q1066 96 1066 552V1434H1199V576ZM862 1551L701 1785L539 1551H441L659 1885H748L966 1551H862Z"/><glyph unicode="Ü" horiz-adv-x="1367" d="M1199 576Q1199 -25 671 -25Q168 -25 168 554V1434H301V566Q301 330 396 213T690 96Q1066 96 1066 552V1434H1199V576ZM877 1551Q844 1551 819 1574T793 1636Q793 1673 817 1696T875 1720Q911 1720 937 1696T963 1636Q963 1600 939 1576T877 1551ZM519 1551Q501 1551 486 1557T458 1575T439 1602T432 1636Q432 1673 457 1696T516 1720Q534 1720 550 1714T578 1696T597 1670T604 1636Q604 1600 579 1576T519 1551Z"/><glyph unicode="Ý" horiz-adv-x="1119" d="M617 537V0H484V534L34 1434H185L513 764Q519 752 529 728T553 667H556Q562 685 573 709T600 763L943 1434H1085L617 537ZM545 1551H437L665 1879H800L545 1551Z"/><glyph unicode="Þ" horiz-adv-x="1130" d="M319 326V0H186V1434H319V1202H556Q787 1202 906 1096T1025 786Q1025 675 986 590T877 446T715 357T513 326H319ZM319 1080V448H509Q692 448 789 532T886 775Q886 1080 532 1080H319Z"/><glyph unicode="ß" horiz-adv-x="1087" d="M445 125Q520 86 601 86Q664 86 715 107T802 168T857 261T877 383Q877 459 851 521T773 632T649 712T480 757V862Q547 875 600 903T691 972T749 1065T769 1178Q769 1293 709 1358T543 1423Q421 1423 357 1340T293 1096V1H165V1115Q165 1212 192 1289T270 1421T393 1505T553 1535Q631 1535 695 1511T804 1442T875 1335T901 1195Q901 1131 883 1074T831 969T748 884T638 823V819Q818 777 913 667T1009 390Q1009 302 980 226T899 95T772 8T607 -24Q520 -24 445 -2V125Z"/><glyph unicode="à" horiz-adv-x="1026" d="M755 0V182H751Q701 84 615 30T419 -24Q345 -24 286 -3T185 56T121 149T98 268Q98 407 184 489T444 597L755 642Q755 937 526 937Q347 937 194 806V946Q226 969 266 987T352 1019T444 1040T537 1048Q708 1048 795 952T883 666V0H755ZM491 497Q422 487 373 472T292 432T245 369T230 276Q230 235 244 200T286 140T353 100T443 86Q511 86 568 112T666 184T731 294T755 433V534L491 497ZM533 1203L278 1531H414L641 1203H533Z"/><glyph unicode="á" horiz-adv-x="1026" d="M755 0V182H751Q701 84 615 30T419 -24Q345 -24 286 -3T185 56T121 149T98 268Q98 407 184 489T444 597L755 642Q755 937 526 937Q347 937 194 806V946Q226 969 266 987T352 1019T444 1040T537 1048Q708 1048 795 952T883 666V0H755ZM491 497Q422 487 373 472T292 432T245 369T230 276Q230 235 244 200T286 140T353 100T443 86Q511 86 568 112T666 184T731 294T755 433V534L491 497ZM473 1203H365L593 1531H728L473 1203Z"/><glyph unicode="â" horiz-adv-x="1026" d="M755 0V182H751Q701 84 615 30T419 -24Q345 -24 286 -3T185 56T121 149T98 268Q98 407 184 489T444 597L755 642Q755 937 526 937Q347 937 194 806V946Q226 969 266 987T352 1019T444 1040T537 1048Q708 1048 795 952T883 666V0H755ZM491 497Q422 487 373 472T292 432T245 369T230 276Q230 235 244 200T286 140T353 100T443 86Q511 86 568 112T666 184T731 294T755 433V534L491 497ZM677 1203L516 1437L354 1203H256L474 1537H563L781 1203H677Z"/><glyph unicode="ã" horiz-adv-x="1026" d="M755 0V182H751Q701 84 615 30T419 -24Q345 -24 286 -3T185 56T121 149T98 268Q98 407 184 489T444 597L755 642Q755 937 526 937Q347 937 194 806V946Q226 969 266 987T352 1019T444 1040T537 1048Q708 1048 795 952T883 666V0H755ZM491 497Q422 487 373 472T292 432T245 369T230 276Q230 235 244 200T286 140T353 100T443 86Q511 86 568 112T666 184T731 294T755 433V534L491 497ZM834 1440Q834 1389 822 1347T786 1275T730 1227T655 1210Q587 1210 499 1274Q429 1323 380 1323Q285 1323 285 1195H202Q202 1246 214 1288T250 1360T306 1406T381 1423Q449 1423 535 1361Q606 1310 658 1310Q699 1310 723 1342T748 1440H834Z"/><glyph unicode="ä" horiz-adv-x="1026" d="M755 0V182H751Q701 84 615 30T419 -24Q345 -24 286 -3T185 56T121 149T98 268Q98 407 184 489T444 597L755 642Q755 937 526 937Q347 937 194 806V946Q226 969 266 987T352 1019T444 1040T537 1048Q708 1048 795 952T883 666V0H755ZM491 497Q422 487 373 472T292 432T245 369T230 276Q230 235 244 200T286 140T353 100T443 86Q511 86 568 112T666 184T731 294T755 433V534L491 497ZM686 1203Q653 1203 628 1226T602 1288Q602 1325 626 1348T684 1372Q720 1372 746 1348T772 1288Q772 1252 748 1228T686 1203ZM328 1203Q310 1203 295 1209T267 1227T248 1254T241 1288Q241 1325 266 1348T325 1372Q343 1372 359 1366T387 1348T406 1322T413 1288Q413 1252 388 1228T328 1203Z"/><glyph unicode="å" horiz-adv-x="1026" d="M755 0V182H751Q701 84 615 30T419 -24Q345 -24 286 -3T185 56T121 149T98 268Q98 407 184 489T444 597L755 642Q755 937 526 937Q347 937 194 806V946Q226 969 266 987T352 1019T444 1040T537 1048Q708 1048 795 952T883 666V0H755ZM491 497Q422 487 373 472T292 432T245 369T230 276Q230 235 244 200T286 140T353 100T443 86Q511 86 568 112T666 184T731 294T755 433V534L491 497ZM518 1182Q478 1182 442 1195T378 1232T334 1291T317 1369Q317 1411 333 1446T377 1506T442 1546T522 1560Q561 1560 597 1547T662 1510T707 1450T724 1372Q724 1331 708 1297T663 1237T597 1197T518 1182ZM518 1486Q465 1486 432 1454T399 1371Q399 1316 431 1286T518 1256Q545 1256 567 1264T606 1288T632 1325T641 1371Q641 1424 606 1455T518 1486Z"/><glyph unicode="æ" horiz-adv-x="1711" d="M882 489Q883 394 907 319T976 193T1085 114T1231 86Q1407 86 1559 207V81Q1414 -24 1203 -24Q1067 -24 968 41T816 232H812Q673 -24 423 -24Q347 -24 287 -4T184 55T120 148T98 268Q98 414 194 496T482 588L755 602Q755 937 528 937Q348 937 194 809V946Q349 1048 542 1048Q774 1048 840 821H844Q964 1048 1213 1048Q1312 1048 1388 1014T1517 915T1597 759T1624 552V489H882ZM1492 601Q1487 762 1415 849T1213 937Q1148 937 1093 914T995 848T924 742T885 601H1492ZM755 490L574 482Q489 478 424 468T316 436T251 374T229 272Q229 229 244 195T287 136T356 99T445 86Q508 86 564 112T663 183T730 288T755 418V490Z"/><glyph unicode="ç" horiz-adv-x="927" d="M846 46Q732 -23 570 -25Q460 -26 372 13T222 121T127 285T94 491Q94 606 129 707T231 884T395 1004T617 1048Q744 1048 849 999V863Q737 937 607 937Q516 937 445 903T326 809T252 670T226 501Q226 419 247 344T313 212T426 120T586 86Q730 86 846 172V46ZM759 -260Q759 -433 494 -433Q457 -433 422 -430V-348Q469 -354 500 -354Q650 -354 650 -263Q650 -181 513 -181Q502 -181 490 -182T461 -185V0H551V-111Q651 -111 705 -149T759 -260Z"/><glyph unicode="è" horiz-adv-x="1052" d="M226 489Q227 395 251 320T320 193T429 114T575 86Q748 86 902 207V81Q755 -24 546 -24Q443 -24 359 12T216 116T125 285T93 513Q93 628 128 726T225 895T372 1007T558 1048Q657 1048 733 1014T860 915T939 759T966 553V489H226ZM834 601Q831 761 758 849T555 937Q490 937 435 914T337 848T268 742T229 601H834ZM583 1203L328 1531H464L691 1203H583Z"/><glyph unicode="é" horiz-adv-x="1052" d="M226 489Q227 395 251 320T320 193T429 114T575 86Q748 86 902 207V81Q755 -24 546 -24Q443 -24 359 12T216 116T125 285T93 513Q93 628 128 726T225 895T372 1007T558 1048Q657 1048 733 1014T860 915T939 759T966 553V489H226ZM834 601Q831 761 758 849T555 937Q490 937 435 914T337 848T268 742T229 601H834ZM510 1203H402L630 1531H765L510 1203Z"/><glyph unicode="ê" horiz-adv-x="1052" d="M226 489Q227 395 251 320T320 193T429 114T575 86Q748 86 902 207V81Q755 -24 546 -24Q443 -24 359 12T216 116T125 285T93 513Q93 628 128 726T225 895T372 1007T558 1048Q657 1048 733 1014T860 915T939 759T966 553V489H226ZM834 601Q831 761 758 849T555 937Q490 937 435 914T337 848T268 742T229 601H834ZM711 1203L550 1437L388 1203H290L508 1537H597L815 1203H711Z"/><glyph unicode="ë" horiz-adv-x="1052" d="M226 489Q227 395 251 320T320 193T429 114T575 86Q748 86 902 207V81Q755 -24 546 -24Q443 -24 359 12T216 116T125 285T93 513Q93 628 128 726T225 895T372 1007T558 1048Q657 1048 733 1014T860 915T939 759T966 553V489H226ZM834 601Q831 761 758 849T555 937Q490 937 435 914T337 848T268 742T229 601H834ZM723 1203Q690 1203 665 1226T639 1288Q639 1325 663 1348T721 1372Q757 1372 783 1348T809 1288Q809 1252 785 1228T723 1203ZM365 1203Q347 1203 332 1209T304 1227T285 1254T278 1288Q278 1325 303 1348T362 1372Q380 1372 396 1366T424 1348T443 1322T450 1288Q450 1252 425 1228T365 1203Z"/><glyph unicode="ì" horiz-adv-x="458" d="M165 0V1024H293V0H165ZM463 1203L208 1531H344L571 1203H463Z"/><glyph unicode="í" horiz-adv-x="458" d="M165 0V1024H293V0H165ZM244 1203H136L364 1531H499L244 1203Z"/><glyph unicode="î" horiz-adv-x="458" d="M165 0V1024H293V0H165ZM389 1203L228 1437L66 1203H-32L186 1537H275L493 1203H389Z"/><glyph unicode="ï" horiz-adv-x="458" d="M165 0V1024H293V0H165ZM410 1203Q377 1203 352 1226T326 1288Q326 1325 350 1348T408 1372Q444 1372 470 1348T496 1288Q496 1252 472 1228T410 1203ZM52 1203Q34 1203 19 1209T-9 1227T-28 1254T-35 1288Q-35 1325 -10 1348T49 1372Q67 1372 83 1366T111 1348T130 1322T137 1288Q137 1252 112 1228T52 1203Z"/><glyph unicode="ð" horiz-adv-x="1117" d="M797 966Q700 1139 589 1247L290 1097L247 1181L520 1313Q397 1423 262 1514H447Q486 1486 530 1450T626 1369L921 1515L966 1433L694 1300Q775 1219 837 1128T940 938T1002 733T1023 518Q1023 401 991 302T899 131T753 18T557 -23Q446 -23 360 14T214 119T124 285T93 503Q93 623 126 723T222 895T371 1007T566 1047Q702 1047 793 962L797 966ZM569 937Q491 937 428 907T319 820T250 683T225 505Q225 408 248 331T314 199T420 115T563 86Q640 86 700 116T803 203T868 337T891 511Q891 937 569 937Z"/><glyph unicode="ñ" horiz-adv-x="1127" d="M856 0V590Q856 937 604 937Q537 937 480 911T382 837T317 726T293 586V0H165V1024H293V846H297Q411 1048 640 1048Q808 1048 896 939T984 624V0H856ZM902 1440Q902 1389 890 1347T854 1275T798 1227T723 1210Q655 1210 567 1274Q497 1323 448 1323Q353 1323 353 1195H270Q270 1246 282 1288T318 1360T374 1406T449 1423Q517 1423 603 1361Q674 1310 726 1310Q767 1310 791 1342T816 1440H902Z"/><glyph unicode="ò" horiz-adv-x="1174" d="M584 -24Q470 -24 380 14T225 121T127 288T93 503Q93 631 129 732T231 903T392 1011T602 1048Q713 1048 802 1012T953 906T1048 738T1081 513Q1081 393 1047 295T948 125T792 15T584 -24ZM594 937Q510 937 442 908T326 824T251 688T225 505Q225 409 251 332T324 200T440 116T592 86Q678 86 744 114T856 197T925 331T949 511Q949 718 857 827T594 937ZM606 1203L351 1531H487L714 1203H606Z"/><glyph unicode="ó" horiz-adv-x="1174" d="M584 -24Q470 -24 380 14T225 121T127 288T93 503Q93 631 129 732T231 903T392 1011T602 1048Q713 1048 802 1012T953 906T1048 738T1081 513Q1081 393 1047 295T948 125T792 15T584 -24ZM594 937Q510 937 442 908T326 824T251 688T225 505Q225 409 251 332T324 200T440 116T592 86Q678 86 744 114T856 197T925 331T949 511Q949 718 857 827T594 937ZM562 1203H454L682 1531H817L562 1203Z"/><glyph unicode="ô" horiz-adv-x="1174" d="M584 -24Q470 -24 380 14T225 121T127 288T93 503Q93 631 129 732T231 903T392 1011T602 1048Q713 1048 802 1012T953 906T1048 738T1081 513Q1081 393 1047 295T948 125T792 15T584 -24ZM594 937Q510 937 442 908T326 824T251 688T225 505Q225 409 251 332T324 200T440 116T592 86Q678 86 744 114T856 197T925 331T949 511Q949 718 857 827T594 937ZM755 1203L594 1437L432 1203H334L552 1537H641L859 1203H755Z"/><glyph unicode="õ" horiz-adv-x="1174" d="M584 -24Q470 -24 380 14T225 121T127 288T93 503Q93 631 129 732T231 903T392 1011T602 1048Q713 1048 802 1012T953 906T1048 738T1081 513Q1081 393 1047 295T948 125T792 15T584 -24ZM594 937Q510 937 442 908T326 824T251 688T225 505Q225 409 251 332T324 200T440 116T592 86Q678 86 744 114T856 197T925 331T949 511Q949 718 857 827T594 937ZM921 1440Q921 1389 909 1347T873 1275T817 1227T742 1210Q674 1210 586 1274Q516 1323 467 1323Q372 1323 372 1195H289Q289 1246 301 1288T337 1360T393 1406T468 1423Q536 1423 622 1361Q693 1310 745 1310Q786 1310 810 1342T835 1440H921Z"/><glyph unicode="ö" horiz-adv-x="1174" d="M584 -24Q470 -24 380 14T225 121T127 288T93 503Q93 631 129 732T231 903T392 1011T602 1048Q713 1048 802 1012T953 906T1048 738T1081 513Q1081 393 1047 295T948 125T792 15T584 -24ZM594 937Q510 937 442 908T326 824T251 688T225 505Q225 409 251 332T324 200T440 116T592 86Q678 86 744 114T856 197T925 331T949 511Q949 718 857 827T594 937ZM770 1203Q737 1203 712 1226T686 1288Q686 1325 710 1348T768 1372Q804 1372 830 1348T856 1288Q856 1252 832 1228T770 1203ZM412 1203Q394 1203 379 1209T351 1227T332 1254T325 1288Q325 1325 350 1348T409 1372Q427 1372 443 1366T471 1348T490 1322T497 1288Q497 1252 472 1228T412 1203Z"/><glyph unicode="÷" horiz-adv-x="1366" d="M688 867Q650 867 624 893T597 958Q597 997 623 1024T688 1051Q730 1051 753 1027T777 959Q777 919 751 893T688 867ZM222 542V651H1146V542H222ZM686 143Q667 143 650 150T621 169T601 197T594 233Q594 272 620 299T686 327Q728 327 751 303T774 234Q774 215 768 199T749 170T721 150T686 143Z"/><glyph unicode="ø" horiz-adv-x="1174" d="M983 869Q1081 729 1081 516Q1081 393 1046 294T947 124T790 15T584 -24Q391 -24 266 83L110 -89L39 -21L198 155Q93 296 93 503Q93 631 129 732T232 903T393 1010T603 1048Q795 1048 917 942L1084 1125L1157 1058L983 869ZM833 851Q744 937 594 937Q509 937 441 908T324 823T251 687T225 505Q225 355 288 250L833 851ZM349 173Q444 86 591 86Q677 86 744 115T856 198T926 332T950 512Q950 664 894 770L349 173Z"/><glyph unicode="ù" horiz-adv-x="1128" d="M835 0V174H831Q727 -24 508 -24Q143 -24 143 422V1024H271V446Q271 262 336 174T537 86Q603 86 657 111T751 183T813 295T835 439V1024H963V0H835ZM568 1203L313 1531H449L676 1203H568Z"/><glyph unicode="ú" horiz-adv-x="1128" d="M835 0V174H831Q727 -24 508 -24Q143 -24 143 422V1024H271V446Q271 262 336 174T537 86Q603 86 657 111T751 183T813 295T835 439V1024H963V0H835ZM560 1203H452L680 1531H815L560 1203Z"/><glyph unicode="û" horiz-adv-x="1128" d="M835 0V174H831Q727 -24 508 -24Q143 -24 143 422V1024H271V446Q271 262 336 174T537 86Q603 86 657 111T751 183T813 295T835 439V1024H963V0H835ZM729 1203L568 1437L406 1203H308L526 1537H615L833 1203H729Z"/><glyph unicode="ü" horiz-adv-x="1128" d="M835 0V174H831Q727 -24 508 -24Q143 -24 143 422V1024H271V446Q271 262 336 174T537 86Q603 86 657 111T751 183T813 295T835 439V1024H963V0H835ZM752 1203Q719 1203 694 1226T668 1288Q668 1325 692 1348T750 1372Q786 1372 812 1348T838 1288Q838 1252 814 1228T752 1203ZM394 1203Q376 1203 361 1209T333 1227T314 1254T307 1288Q307 1325 332 1348T391 1372Q409 1372 425 1366T453 1348T472 1322T479 1288Q479 1252 454 1228T394 1203Z"/><glyph unicode="ý" horiz-adv-x="959" d="M462 -186Q402 -336 324 -408T135 -481Q80 -481 42 -468V-348Q64 -356 86 -360T132 -364Q195 -364 241 -325T322 -205L411 5L17 1024H159L452 213Q458 197 463 177T474 136H479Q484 153 488 170T501 209L812 1024H947L462 -186ZM473 1203H365L593 1531H728L473 1203Z"/><glyph unicode="þ" horiz-adv-x="1175" d="M293 165V-471H165V1516H293V828H297Q354 935 449 991T665 1048Q763 1048 840 1013T971 912T1053 754T1082 545Q1082 418 1050 314T958 134T813 18T620 -24Q404 -24 297 165H293ZM293 426Q293 356 316 295T382 187T483 113T615 86Q692 86 754 118T859 211T926 356T950 546Q950 636 928 708T866 832T768 910T639 937Q559 937 495 908T386 827T317 708T293 562V426Z"/><glyph unicode="ÿ" horiz-adv-x="959" d="M462 -186Q402 -336 324 -408T135 -481Q80 -481 42 -468V-348Q64 -356 86 -360T132 -364Q195 -364 241 -325T322 -205L411 5L17 1024H159L452 213Q458 197 463 177T474 136H479Q484 153 488 170T501 209L812 1024H947L462 -186ZM662 1203Q629 1203 604 1226T578 1288Q578 1325 602 1348T660 1372Q696 1372 722 1348T748 1288Q748 1252 724 1228T662 1203ZM304 1203Q286 1203 271 1209T243 1227T224 1254T217 1288Q217 1325 242 1348T301 1372Q319 1372 335 1366T363 1348T382 1322T389 1288Q389 1252 364 1228T304 1203Z"/><glyph unicode="ı" horiz-adv-x="458" d="M165 0V1024H293V0H165Z"/><glyph unicode="Œ" horiz-adv-x="1920" d="M1083 0Q1035 -5 961 -14T782 -24Q622 -24 496 29T282 179T148 408T101 701Q101 873 149 1012T289 1251T510 1404T804 1458Q845 1458 889 1455T972 1448T1040 1440T1083 1434H1762V1312H1197V786H1721V666H1197V121H1795V0H1083ZM1063 1309Q920 1337 793 1337Q668 1337 566 1291T392 1162T280 965T240 714Q240 578 277 465T385 269T556 142T784 96Q909 96 1063 128V1309Z"/><glyph unicode="œ" horiz-adv-x="1893" d="M1078 489Q1079 394 1103 319T1173 193T1282 114T1427 86Q1603 86 1755 207V81Q1608 -24 1401 -24Q1119 -24 1013 242H1009Q886 -24 584 -24Q470 -24 379 14T225 121T127 288T93 502Q93 631 129 732T233 904T394 1011T603 1048Q755 1048 861 980T1016 782H1020Q1137 1048 1416 1048Q1513 1048 1588 1014T1714 915T1793 760T1820 554V489H1078ZM1687 601Q1683 760 1611 848T1410 937Q1344 937 1288 913T1188 845T1118 739T1081 601H1687ZM594 937Q509 937 441 908T325 822T251 686T225 503Q225 408 250 331T323 200T438 116T591 86Q677 86 743 114T856 197T925 331T949 510Q949 613 926 692T857 826T745 909T594 937Z"/><glyph unicode="Š" horiz-adv-x="1053" d="M130 210Q166 183 209 162T298 126T390 104T478 96Q641 96 722 159T803 340Q803 397 784 439T725 519T624 592T480 675Q388 725 323 769T216 860T155 961T135 1084Q135 1171 172 1240T272 1357T419 1432T600 1458Q769 1458 883 1411V1264Q756 1337 585 1337Q521 1337 465 1322T366 1276T299 1202T274 1098Q274 1042 290 1002T343 925T439 854T585 772Q675 724 742 679T853 584T920 479T942 355Q942 261 907 190T809 71T659 0T468 -24Q434 -24 387 -19T292 -3T201 22T130 54V210ZM589 1551H500L282 1884H383L544 1649L706 1884H806L589 1551Z"/><glyph unicode="š" horiz-adv-x="832" d="M107 184Q136 161 170 143T240 112T312 93T382 86Q610 86 610 257Q610 296 594 324T548 376T476 420T381 462Q310 491 259 521T175 586T126 664T110 761Q110 829 139 882T219 972T334 1028T472 1048Q605 1048 704 998V863Q589 937 456 937Q408 937 369 925T301 891T258 839T242 771Q242 733 254 705T291 653T357 609T456 564Q530 534 584 505T673 441T725 364T742 265Q742 196 714 142T635 51T516 -5T368 -24Q213 -24 107 41V184ZM456 1203H367L149 1536H250L411 1301L573 1536H673L456 1203Z"/><glyph unicode="Ÿ" horiz-adv-x="1119" d="M617 537V0H484V534L34 1434H185L513 764Q519 752 529 728T553 667H556Q562 685 573 709T600 763L943 1434H1085L617 537ZM732 1551Q699 1551 674 1574T648 1636Q648 1673 672 1696T730 1720Q766 1720 792 1696T818 1636Q818 1600 794 1576T732 1551ZM374 1551Q356 1551 341 1557T313 1575T294 1602T287 1636Q287 1673 312 1696T371 1720Q389 1720 405 1714T433 1696T452 1670T459 1636Q459 1600 434 1576T374 1551Z"/><glyph unicode="Ž" horiz-adv-x="1167" d="M249 121H1088V0H49V39L900 1312H117V1434H1105V1400L249 121ZM667 1551H578L360 1884H461L622 1649L784 1884H884L667 1551Z"/><glyph unicode="ž" horiz-adv-x="938" d="M240 112H871V0H45V43L688 912H98V1024H886V988L240 112ZM549 1203H460L242 1536H343L504 1301L666 1536H766L549 1203Z"/><glyph unicode="ƒ" horiz-adv-x="1079" d="M931 1302Q892 1323 843 1323Q681 1323 654 1142L622 923H791V813H606L512 136Q482 -78 398 -178T184 -278Q167 -278 147 -275T103 -264V-151Q140 -168 180 -168Q341 -168 384 139L478 813H374V923H495L535 1188Q544 1248 571 1293T637 1370T727 1418T832 1434Q886 1434 931 1419V1302Z"/><glyph unicode="ȷ" horiz-adv-x="458" d="M293 36Q293 -91 271 -187T203 -349T86 -448T-84 -482Q-154 -482 -225 -448V-324Q-147 -370 -77 -370Q165 -370 165 14V1024H293V36Z"/><glyph unicode="ˆ" horiz-adv-x="763" d="M531 1203L370 1437L208 1203H110L328 1537H417L635 1203H531Z"/><glyph unicode="ˇ" horiz-adv-x="763" d="M431 1203H342L124 1536H225L386 1301L548 1536H648L431 1203Z"/><glyph unicode="˙" horiz-adv-x="388" d="M194 1203Q176 1203 160 1209T132 1228T113 1256T106 1291Q106 1309 113 1325T132 1352T159 1369T193 1376Q229 1376 255 1353T282 1291Q282 1254 257 1229T194 1203Z"/><glyph unicode="˚" horiz-adv-x="584" d="M290 1182Q250 1182 214 1195T150 1232T106 1291T89 1369Q89 1411 105 1446T149 1506T214 1546T294 1560Q333 1560 369 1547T434 1510T479 1450T496 1372Q496 1331 480 1297T435 1237T369 1197T290 1182ZM290 1486Q237 1486 204 1454T171 1371Q171 1316 203 1286T290 1256Q317 1256 339 1264T378 1288T404 1325T413 1371Q413 1424 378 1455T290 1486Z"/><glyph unicode="˜" horiz-adv-x="669" d="M670 1440Q670 1389 658 1347T622 1275T566 1227T491 1210Q423 1210 335 1274Q265 1323 216 1323Q121 1323 121 1195H38Q38 1246 50 1288T86 1360T142 1406T217 1423Q285 1423 371 1361Q442 1310 494 1310Q535 1310 559 1342T584 1440H670Z"/><glyph unicode="‐" horiz-adv-x="817" d="M144 530V640H691V530H144Z"/><glyph unicode="–" horiz-adv-x="1024" d="M0 530V640H1024V530H0Z"/><glyph unicode="—" horiz-adv-x="2048" d="M0 530V640H2048V530H0Z"/><glyph unicode="‘" horiz-adv-x="453" d="M237 998H109L256 1446H353L237 998Z"/><glyph unicode="’" horiz-adv-x="453" d="M207 998H111L229 1446H355L207 998Z"/><glyph unicode="‚" horiz-adv-x="453" d="M178 -226H83L200 218H326L178 -226Z"/><glyph unicode="“" horiz-adv-x="729" d="M511 998H385L533 1446H629L511 998ZM237 998H109L256 1446H353L237 998Z"/><glyph unicode="”" horiz-adv-x="729" d="M484 998H387L502 1446H631L484 998ZM207 998H111L229 1446H355L207 998Z"/><glyph unicode="„" horiz-adv-x="729" d="M455 -228H358L474 218H602L455 -228ZM178 -228H83L200 218H326L178 -228Z"/><glyph unicode="†" horiz-adv-x="762" d="M716 913L449 943L414 229H358L323 943L46 913V1043L353 1023L318 1433H454L419 1023L716 1043V913Z"/><glyph unicode="‡" horiz-adv-x="762" d="M716 519L419 544L454 229H318L353 544L46 519V649L323 624L371 831L323 1038L46 1013V1143L353 1118L318 1433H454L419 1118L716 1143V1013L449 1038L401 831L449 624L716 649V519Z"/><glyph unicode="•" horiz-adv-x="821" d="M164 688Q164 739 183 784T236 862T314 915T410 935Q461 935 506 916T584 863T637 784T657 688Q657 637 638 592T585 514T506 462T410 442Q359 442 314 461T236 514T184 592T164 688Z"/><glyph unicode="…" horiz-adv-x="1432" d="M1195 -17Q1155 -17 1128 10T1101 79Q1101 119 1128 147T1195 175Q1215 175 1232 168T1262 147T1283 116T1291 79Q1291 37 1263 10T1195 -17ZM714 -17Q674 -17 646 10T618 79Q618 99 625 116T646 146T677 167T714 175Q733 175 750 167T781 146T802 116T810 79Q810 38 782 11T714 -17ZM234 -17Q194 -17 167 10T140 79Q140 119 167 147T234 175Q254 175 271 168T301 147T322 116T330 79Q330 38 302 11T234 -17Z"/><glyph unicode="‰" horiz-adv-x="2451" d="M410 722Q334 722 273 748T170 821T105 935T82 1082Q82 1171 107 1241T177 1359T285 1433T425 1459Q500 1459 560 1434T662 1362T726 1248T749 1094Q749 1013 725 945T656 828T550 750T410 722ZM421 1363Q369 1363 327 1344T255 1290T210 1203T194 1086Q194 961 252 889T416 817Q469 817 510 836T579 892T622 979T637 1093Q637 1224 579 1293T421 1363ZM431 -21H310L1202 1433H1322L431 -21ZM2039 -23Q1963 -23 1903 3T1800 76T1735 190T1712 337Q1712 425 1737 495T1807 614T1915 689T2055 715Q2130 715 2190 690T2291 617T2355 502T2378 348Q2378 267 2354 199T2286 82T2179 5T2039 -23ZM2051 617Q1945 617 1885 545T1825 340Q1825 213 1883 143T2045 72Q2151 72 2209 145T2268 348Q2268 480 2210 548T2051 617ZM1229 -23Q1154 -23 1093 3T990 76T924 189T901 337Q901 425 926 495T996 614T1104 689T1244 715Q1319 715 1379 690T1481 618T1545 503T1568 348Q1568 267 1544 199T1475 82T1369 5T1229 -23ZM1240 617Q1188 617 1146 598T1075 544T1029 457T1013 340Q1013 278 1028 228T1072 144T1142 91T1235 72Q1287 72 1328 91T1397 146T1441 233T1457 348Q1457 480 1399 548T1240 617Z"/><glyph unicode="‹" horiz-adv-x="641" d="M397 200L109 536L397 880H531L244 536L531 200H397Z"/><glyph unicode="›" horiz-adv-x="641" d="M110 200L397 536L110 880H244L532 536L244 200H110Z"/><glyph unicode="⁄" horiz-adv-x="300" d="M-206 0H-327L533 1434H653L-206 0Z"/><glyph unicode="⁰" horiz-adv-x="712" d="M347 861Q213 861 139 970T65 1288Q65 1519 142 1635T368 1752Q647 1752 647 1311Q647 1091 569 976T347 861ZM362 1653Q271 1653 224 1564T177 1295Q177 1131 222 1046T357 961Q445 961 490 1047T535 1301Q535 1653 362 1653Z"/><glyph unicode="ⁱ" horiz-adv-x="349" d="M173 1620Q141 1620 121 1641T101 1696Q101 1727 121 1749T173 1771Q206 1771 227 1749T248 1696Q248 1664 227 1642T173 1620ZM227 717H117V1435H227V717Z"/><glyph unicode="⁴" horiz-adv-x="712" d="M545 1095V884H438V1095H45V1173L422 1734H545V1189H655V1095H545ZM437 1616Q415 1570 395 1541L163 1189H438V1534Q438 1570 441 1616H437Z"/><glyph unicode="⁵" horiz-adv-x="712" d="M615 1146Q615 1080 592 1027T526 937T426 881T299 861Q184 861 111 904V1020Q164 989 212 975T301 960Q347 960 384 973T448 1010T488 1067T503 1140Q503 1302 286 1302Q268 1302 248 1301T207 1299T169 1297T138 1293V1736H575V1632H242V1400Q275 1403 307 1403Q377 1403 433 1386T530 1337T593 1256T615 1146Z"/><glyph unicode="⁶" horiz-adv-x="712" d="M533 1143Q533 1185 523 1219T493 1278T441 1316T368 1330Q331 1330 299 1317T243 1280T206 1226T192 1160Q192 1126 202 1091T233 1026T286 979T362 960Q402 960 434 974T488 1013T521 1071T533 1143ZM647 1151Q647 1089 626 1036T567 944T478 883T366 861Q302 861 248 886T154 960T92 1085T70 1259Q70 1374 96 1465T172 1620T290 1718T445 1752Q486 1752 524 1745T592 1723V1614Q563 1631 523 1641T447 1651Q389 1651 340 1630T254 1564T197 1452T176 1291H179Q210 1353 265 1387T397 1422Q454 1422 500 1403T579 1347T629 1261T647 1151Z"/><glyph unicode="⁷" horiz-adv-x="712" d="M302 878H186L512 1639H71V1739H646V1685L302 878Z"/><glyph unicode="⁸" horiz-adv-x="712" d="M534 1100Q534 1222 350 1284Q265 1255 221 1212T177 1104Q177 1070 191 1044T230 1001T287 974T355 965Q389 965 421 974T479 1001T519 1043T534 1100ZM505 1532Q505 1592 466 1622T360 1653Q328 1653 301 1645T253 1620T221 1582T209 1534Q209 1482 247 1446T356 1381Q430 1410 467 1446T505 1532ZM647 1108Q647 1047 624 1001T559 925T464 879T347 864Q293 864 242 878T152 922T88 995T63 1099Q63 1179 107 1236T236 1332Q168 1367 131 1416T94 1532Q94 1585 115 1626T172 1696T258 1739T364 1754Q417 1754 463 1740T545 1698T600 1632T620 1544Q620 1469 580 1418T470 1332Q555 1297 601 1243T647 1108Z"/><glyph unicode="⁹" horiz-adv-x="712" d="M522 1443Q522 1488 509 1526T473 1592T419 1637T349 1653Q312 1653 281 1640T227 1601T191 1541T178 1462Q178 1380 220 1332T340 1283Q379 1283 412 1296T469 1332T508 1384T522 1443ZM641 1359Q641 1245 617 1153T545 996T430 896T272 861Q229 861 187 869T110 895V1003Q144 985 189 973T272 960Q339 960 389 986T472 1059T521 1174T537 1323Q505 1260 450 1225T319 1190Q262 1190 215 1209T135 1265T84 1351T65 1461Q65 1526 85 1579T143 1671T231 1730T343 1752Q406 1752 460 1728T555 1654T618 1531T641 1359Z"/><glyph unicode="ⁿ" horiz-adv-x="803" d="M587 717V1100Q587 1165 580 1213T554 1294T506 1342T429 1359Q388 1359 351 1341T287 1292T243 1218T227 1127V717H117V1435H224V1312H227Q297 1454 448 1454Q569 1454 633 1379T698 1165V717H587Z"/><glyph unicode="₀" horiz-adv-x="712" d="M347 -264Q213 -264 139 -155T65 163Q65 394 142 510T368 627Q647 627 647 186Q647 -34 569 -149T347 -264ZM362 528Q271 528 224 439T177 170Q177 6 222 -79T357 -164Q445 -164 490 -78T535 176Q535 528 362 528Z"/><glyph unicode="₁" horiz-adv-x="712" d="M634 -241H146V-144H336V494L135 431V538L444 633V-144H634V-241Z"/><glyph unicode="₂" horiz-adv-x="712" d="M627 -241H91V-134L330 101Q387 157 421 196T473 268T497 327T503 384Q503 452 465 489T355 526Q240 526 136 426V552Q234 629 367 629Q426 629 472 612T550 565T600 491T617 397Q617 359 606 320T570 237T505 146T405 40L227 -131V-135H627V-241Z"/><glyph unicode="₃" horiz-adv-x="712" d="M607 -6Q607 -63 586 -110T527 -191T434 -245T311 -264Q190 -264 108 -214V-95Q211 -165 314 -165Q400 -165 448 -123T496 -9Q496 145 269 145H192V244H263Q469 244 469 397Q469 525 320 525Q236 525 141 464V579Q234 627 343 627Q396 627 439 612T514 569T561 502T578 416Q578 259 432 206V202Q519 182 563 128T607 -6Z"/><glyph unicode="₄" horiz-adv-x="712" d="M545 -27V-238H438V-27H45V51L422 612H545V67H655V-27H545ZM437 494Q415 448 395 419L163 67H438V412Q438 448 441 494H437Z"/><glyph unicode="₅" horiz-adv-x="712" d="M615 21Q615 -45 592 -98T526 -188T426 -244T299 -264Q184 -264 111 -221V-105Q164 -136 212 -150T301 -165Q347 -165 384 -152T448 -115T488 -58T503 15Q503 177 286 177Q268 177 248 176T207 174T169 172T138 168V611H575V507H242V275Q275 278 307 278Q377 278 433 261T530 212T593 131T615 21Z"/><glyph unicode="₆" horiz-adv-x="712" d="M533 18Q533 60 523 94T493 153T441 191T368 205Q331 205 299 192T243 155T206 101T192 35Q192 1 202 -34T233 -99T286 -146T362 -165Q402 -165 434 -151T488 -112T521 -54T533 18ZM647 26Q647 -36 626 -89T567 -181T478 -242T366 -264Q302 -264 248 -239T154 -165T92 -40T70 134Q70 249 96 340T172 495T290 593T445 627Q486 627 524 620T592 598V489Q563 506 523 516T447 526Q389 526 340 505T254 439T197 327T176 166H179Q210 228 265 262T397 297Q454 297 500 278T579 222T629 136T647 26Z"/><glyph unicode="₇" horiz-adv-x="712" d="M302 -247H186L512 514H71V614H646V560L302 -247Z"/><glyph unicode="₈" horiz-adv-x="712" d="M534 -25Q534 97 350 159Q265 130 221 87T177 -21Q177 -55 191 -81T230 -124T287 -151T355 -160Q389 -160 421 -151T479 -124T519 -82T534 -25ZM505 407Q505 467 466 497T360 528Q328 528 301 520T253 495T221 457T209 409Q209 357 247 321T356 256Q430 285 467 321T505 407ZM647 -17Q647 -78 624 -124T559 -200T464 -246T347 -261Q293 -261 242 -247T152 -203T88 -130T63 -26Q63 54 107 111T236 207Q168 242 131 291T94 407Q94 460 115 501T172 571T258 614T364 629Q417 629 463 615T545 573T600 507T620 419Q620 344 580 293T470 207Q555 172 601 118T647 -17Z"/><glyph unicode="₉" horiz-adv-x="712" d="M522 318Q522 363 509 401T473 467T419 512T349 528Q312 528 281 515T227 476T191 416T178 337Q178 255 220 207T340 158Q379 158 412 171T469 207T508 259T522 318ZM641 234Q641 120 617 28T545 -129T430 -229T272 -264Q229 -264 187 -256T110 -230V-122Q144 -140 189 -152T272 -165Q339 -165 389 -139T472 -66T521 49T537 198Q505 135 450 100T319 65Q262 65 215 84T135 140T84 226T65 336Q65 401 85 454T143 546T231 605T343 627Q406 627 460 603T555 529T618 406T641 234Z"/><glyph unicode="€" horiz-adv-x="1080" d="M988 51Q856 -24 710 -24Q612 -24 531 9T388 106T285 267T223 491H90V603H212Q210 623 209 645T208 692Q208 751 214 814H90V926H230Q253 1051 300 1150T415 1317T567 1422T749 1458Q880 1458 988 1403V1271Q873 1346 739 1346Q672 1346 612 1318T502 1235T416 1103T360 926H880V814H344Q342 793 341 769T340 715Q340 687 340 659T343 603H880V491H357Q390 290 485 189T721 87Q850 87 988 177V51Z"/><glyph unicode="™" horiz-adv-x="1584" d="M1291 772V1277H1287L1064 772H1000L785 1277H781V772H689V1434H810L1034 913H1038L1269 1434H1386V772H1291ZM383 1346V772H286V1346H73V1434H599V1346H383Z"/><glyph unicode="∕" horiz-adv-x="300" d="M-206 0H-327L533 1434H653L-206 0Z"/><glyph unicode="∙" horiz-adv-x="445" d="M222 567Q202 567 185 574T154 595T134 626T126 664Q126 704 154 732T222 760Q241 760 258 753T289 733T311 703T319 664Q319 643 311 626T290 595T259 575T222 567Z"/><glyph unicode="ﬀ" horiz-adv-x="1204" d="M1243 1395Q1202 1423 1133 1423Q952 1423 952 1188V1024H1208V912H952V0H824V912H351V0H223V912H44V1024H223V1042Q223 1149 246 1236T314 1384T425 1478T579 1511Q626 1511 666 1507T732 1494V1373Q705 1385 667 1392T581 1399Q466 1399 409 1311T351 1037V1024H824V1196Q824 1276 847 1339T911 1445T1008 1512T1130 1535Q1201 1535 1243 1516V1395Z"/><glyph unicode="ﬃ" horiz-adv-x="1718" d="M1425 0V912H952V0H824V912H351V0H223V912H44V1024H223V1042Q223 1149 246 1236T314 1384T425 1478T579 1511Q626 1511 666 1507T732 1494V1373Q705 1385 667 1392T581 1399Q466 1399 409 1311T351 1037V1024H824V1043Q824 1149 853 1239T940 1396T1085 1499T1289 1536Q1356 1536 1415 1530T1510 1516V1395Q1468 1408 1408 1416T1284 1424Q1199 1424 1137 1398T1033 1321T972 1200T952 1037V1024H1553V0H1425Z"/><glyph unicode="ﬄ" horiz-adv-x="1718" d="M1426 0V1410Q1397 1415 1356 1419T1273 1424Q1188 1424 1127 1398T1027 1321T970 1200T951 1037V1024H1209V912H951V0H823V912H351V0H223V912H44V1024H223V1042Q223 1149 246 1236T314 1384T425 1478T579 1511Q626 1511 666 1507T732 1494V1373Q705 1385 667 1392T581 1399Q466 1399 409 1311T351 1037V1024H823V1043Q823 1149 850 1239T934 1396T1076 1499T1278 1536Q1335 1536 1405 1530T1553 1512V0H1426Z"/><glyph unicode="﴾" horiz-adv-x="598" d="M451 -326Q145 28 145 546Q145 1077 453 1434H576Q263 1064 263 548Q263 48 573 -326H451Z"/><glyph unicode="﴿" horiz-adv-x="598" d="M25 -326Q335 48 335 548Q335 1064 22 1434H145Q453 1077 453 546Q453 28 147 -326H25Z"/></font>
</defs>
</svg>
