<?xml version="1.0" encoding="UTF-8"?><svg xmlns="http://www.w3.org/2000/svg" width="100%" height="100%"><defs><font id="web" horiz-adv-x="1103"><!--



NOTICE: This font software is the valuable property 
of Monotype Imaging and/or its suppliers and its use 
by you is covered under the terms of the Web Font license 
agreement between you and Monotype Imaging. You may 
ONLY use this font software with the licensed web site. 
Except as specifically permitted by the license, you 
may not copy this font software. If you have any questions, 
please contact Monotype Imaging. 

For more information, please visit http://www.ascenderfonts.com/info/webfont-eula.aspx

Licensed to: microsoft.com

Serial number: SH-264
--><font-face font-family="" units-per-em="2048" panose-1="2 11 5 2 4 2 4 2 2 3" ascent="2210" descent="-514" alphabetic="0"/><missing-glyph horiz-adv-x="1322" d="M166 0V1398H1156V0H166ZM314 148H1008V1250H314V148Z"/><glyph unicode="&#13;" horiz-adv-x="199"/><glyph unicode=" " horiz-adv-x="561"/><glyph unicode="!" horiz-adv-x="582" d="M375 1434L356 404H221L203 1434H375ZM291 -18Q245 -18 213 14T180 92Q180 138 212 170T291 203Q336 203 369 171T402 92Q402 46 369 14T291 -18Z"/><glyph unicode="&quot;" horiz-adv-x="803" d="M308 1434V987H163V1434H308ZM640 1434V987H495V1434H640Z"/><glyph unicode="#" horiz-adv-x="1210" d="M1166 1032L1143 926H882L819 626H1100L1073 520H798L710 123H584L670 520H420L336 123H211L295 520H33L53 626H318L379 926H102L123 1032H400L484 1434H610L526 1032H778L864 1434H987L903 1032H1166ZM758 926H506L440 626H694L758 926Z"/><glyph unicode="$" horiz-adv-x="1104" d="M616 8V-209H512V0Q299 0 166 86V260Q224 209 324 175T512 140V652Q292 758 227 847T162 1059Q162 1204 261 1309T512 1436V1616H616V1440Q812 1434 887 1384V1214Q785 1294 616 1300V772Q824 673 900 581T977 370Q977 228 882 132T616 8ZM512 828V1294Q428 1277 379 1220T330 1080Q330 994 370 939T512 828ZM616 600V148Q809 190 809 356Q809 494 616 600Z"/><glyph unicode="%" horiz-adv-x="1676" d="M404 715Q256 715 168 812T80 1073Q80 1251 173 1353T424 1456Q577 1456 661 1361T746 1094Q746 922 652 819T404 715ZM418 1346Q323 1346 268 1276T213 1082Q213 961 267 894T414 826Q508 826 561 896T614 1090Q614 1211 562 1278T418 1346ZM1364 1434L444 -10H301L1220 1434H1364ZM1258 -22Q1110 -22 1022 76T934 336Q934 514 1028 617T1278 721Q1430 721 1515 625T1600 356Q1600 185 1506 82T1258 -22ZM1272 608Q1176 608 1122 538T1067 344Q1067 225 1121 158T1268 90Q1362 90 1415 160T1468 354Q1468 476 1416 542T1272 608Z"/><glyph unicode="&amp;" horiz-adv-x="1639" d="M1445 -23Q1388 -23 1345 -8T1264 36T1193 106T1120 199Q1080 156 1028 116T911 45T771 -4T606 -23Q498 -23 408 4T254 83T155 213T119 390Q119 543 206 651T452 829Q422 851 392 880T339 947T301 1030T286 1130Q286 1209 314 1270T393 1373T511 1436T658 1458Q736 1458 800 1437T911 1375T984 1279T1010 1154Q1010 1034 942 955T736 819Q805 792 861 753T964 666T1053 563T1134 449Q1215 562 1256 698T1297 983Q1297 1021 1293 1054T1280 1121H1439Q1447 1088 1448 1059T1452 988Q1452 897 1433 805T1382 627T1308 462T1218 319Q1253 271 1282 236T1340 176T1401 141T1473 129Q1503 129 1534 137T1598 157V5Q1562 -9 1523 -16T1445 -23ZM606 119Q682 119 746 135T864 179T962 243T1042 320Q981 415 930 482T826 599T714 683T576 748Q513 723 460 693T369 621T308 524T286 395Q286 327 311 275T379 189T481 137T606 119ZM856 1140Q856 1190 838 1225T791 1283T727 1316T658 1327Q560 1327 502 1274T442 1130Q442 1089 454 1053T489 986T542 931T606 890Q732 934 794 992T856 1140Z"/><glyph unicode="'" horiz-adv-x="471" d="M308 1434V987H163V1434H308Z"/><glyph unicode="(" horiz-adv-x="618" d="M596 -326H450Q140 28 140 547Q140 1068 450 1434H598Q284 1054 284 549Q284 48 596 -326Z"/><glyph unicode=")" horiz-adv-x="618" d="M170 -326H24Q336 48 336 549Q336 1054 22 1434H170Q482 1068 482 547Q482 28 170 -326Z"/><glyph unicode="*" horiz-adv-x="854" d="M780 1104L506 1048L696 805L586 729L430 994L272 729L162 805L352 1048L76 1104L121 1229L383 1130L360 1434H498L475 1130L738 1229L780 1104Z"/><glyph unicode="+" horiz-adv-x="1401" d="M1172 530H768V127H635V530H232V664H635V1067H768V664H1172V530Z"/><glyph unicode="," horiz-adv-x="444" d="M316 228L156 -264H39L156 228H316Z"/><glyph unicode="-" horiz-adv-x="819" d="M690 506H144V635H690V506Z"/><glyph unicode="." horiz-adv-x="444" d="M223 -22Q177 -22 145 11T112 90Q112 136 144 169T223 203Q270 203 303 170T336 90Q336 44 303 11T223 -22Z"/><glyph unicode="/" horiz-adv-x="798" d="M813 1434L125 -238H-28L658 1434H813Z"/><glyph unicode="0" horiz-adv-x="1104" d="M538 -24Q325 -24 206 159T86 688Q86 1068 210 1263T570 1458Q1020 1458 1020 723Q1020 359 893 168T538 -24ZM561 1319Q254 1319 254 696Q254 114 555 114Q852 114 852 706Q852 1319 561 1319Z"/><glyph unicode="1" horiz-adv-x="1104" d="M987 0H176V144H500V1258L168 1159V1315L664 1466V144H987V0Z"/><glyph unicode="2" horiz-adv-x="1104" d="M960 0H96V146L514 565Q674 725 742 831T811 1059Q811 1183 740 1251T538 1319Q346 1319 170 1155V1327Q338 1458 561 1458Q753 1458 863 1354T973 1075Q973 937 897 806T624 479L293 152V148H960V0Z"/><glyph unicode="3" horiz-adv-x="1104" d="M131 53V230Q278 114 463 114Q613 114 702 189T792 391Q792 672 393 672H274V811H387Q742 811 742 1075Q742 1319 471 1319Q320 1319 186 1216V1376Q324 1458 512 1458Q693 1458 801 1362T910 1116Q910 833 622 752V748Q777 733 868 640T960 406Q960 213 822 95T456 -24Q252 -24 131 53Z"/><glyph unicode="4" horiz-adv-x="1104" d="M1034 381H850V0H688V381H14V488L652 1434H850V514H1034V381ZM688 514V1134Q688 1200 692 1282H688Q674 1246 633 1172L192 514H688Z"/><glyph unicode="5" horiz-adv-x="1104" d="M164 35V209Q311 114 463 114Q615 114 708 200T801 428Q801 569 706 648T434 727Q374 727 209 715V1434H903V1286H364V866Q430 870 486 870Q716 870 842 755T968 438Q968 230 833 103T461 -24Q262 -24 164 35Z"/><glyph unicode="6" horiz-adv-x="1104" d="M934 1417V1262Q823 1319 700 1319Q509 1319 395 1149T280 694H284Q384 897 612 897Q800 897 911 777T1022 454Q1022 243 895 110T572 -24Q356 -24 233 148T110 631Q110 1008 271 1233T696 1458Q846 1458 934 1417ZM576 758Q449 758 370 672T291 469Q291 322 369 218T578 114Q702 114 778 204T854 434Q854 586 781 672T576 758Z"/><glyph unicode="7" horiz-adv-x="1104" d="M1010 1382L442 0H272L809 1286H86V1434H1010V1382Z"/><glyph unicode="8" horiz-adv-x="1104" d="M410 752V756Q152 876 152 1104Q152 1259 270 1358T574 1458Q742 1458 850 1365T958 1126Q958 888 692 756V752Q1006 640 1006 364Q1006 186 878 81T522 -24Q338 -24 219 80T100 350Q100 626 410 752ZM790 1106Q790 1205 728 1262T559 1319Q459 1319 390 1260T320 1108Q320 921 553 826Q790 924 790 1106ZM542 674Q268 565 268 358Q268 251 347 183T557 114Q681 114 759 181T838 352Q838 568 542 674Z"/><glyph unicode="9" horiz-adv-x="1104" d="M172 24V182Q292 114 426 114Q621 114 729 271T838 717Q836 716 834 717Q742 532 514 532Q330 532 212 657T94 979Q94 1189 223 1323T555 1458Q767 1458 885 1291T1004 803Q1004 406 850 191T422 -24Q278 -24 172 24ZM540 1319Q421 1319 342 1230T262 1002Q262 851 340 765T551 678Q667 678 747 757T828 950Q828 1113 748 1216T540 1319Z"/><glyph unicode=":" horiz-adv-x="444" d="M223 824Q177 824 145 857T112 936Q112 982 144 1014T223 1046Q270 1046 303 1014T336 936Q336 890 303 857T223 824ZM223 -22Q177 -22 145 11T112 90Q112 136 144 169T223 203Q270 203 303 170T336 90Q336 44 303 11T223 -22Z"/><glyph unicode=";" horiz-adv-x="444" d="M226 824Q179 824 147 857T114 936Q114 982 146 1014T226 1046Q272 1046 305 1014T338 936Q338 890 305 857T226 824ZM316 228L156 -264H39L156 228H316Z"/><glyph unicode="&lt;" horiz-adv-x="1401" d="M1132 127L272 559V618L1132 1100V950L490 594V590L1132 276V127Z"/><glyph unicode="=" horiz-adv-x="1401" d="M1172 744H232V876H1172V744ZM1172 318H232V450H1172V318Z"/><glyph unicode="&gt;" horiz-adv-x="1401" d="M1132 559L272 127V276L916 588V594L272 950V1100L1132 618V559Z"/><glyph unicode="?" horiz-adv-x="918" d="M335 398Q326 424 319 465T312 548Q312 612 337 663T401 760T484 846T567 930T630 1019T656 1122Q656 1170 638 1207T587 1269T513 1306T424 1319Q255 1319 131 1186V1362Q284 1458 448 1458Q524 1458 591 1438T708 1379T788 1280T817 1143Q817 1069 791 1011T726 905T640 814T555 731T489 644T463 545Q463 499 474 462T496 398H335ZM425 -18Q381 -18 347 14Q314 46 314 92Q314 139 347 170Q380 203 425 203Q470 203 503 170Q536 139 536 92Q536 46 503 14Q469 -18 425 -18Z"/><glyph unicode="@" horiz-adv-x="1956" d="M1164 420H1159Q1086 182 872 182Q735 182 652 283T568 555Q568 781 683 930T987 1080Q1059 1080 1115 1043T1188 950H1192Q1194 978 1202 1065H1327Q1280 514 1280 504Q1280 297 1399 297Q1507 297 1578 414T1650 717Q1650 992 1476 1166T994 1340Q697 1340 503 1132T309 612Q309 305 493 117T991 -72Q1238 -72 1413 10V-114Q1240 -188 981 -188Q617 -188 395 31T172 606Q172 972 405 1213T1002 1454Q1342 1454 1565 1252T1788 725Q1788 487 1671 335T1384 182Q1165 182 1164 420ZM985 964Q861 964 785 846T708 553Q708 435 759 367T897 299Q1021 299 1093 422T1166 750Q1166 964 985 964Z"/><glyph unicode="A" horiz-adv-x="1321" d="M1298 0H1112L960 402H352L209 0H22L572 1434H746L1298 0ZM905 553L680 1164Q669 1194 658 1260H654Q644 1199 631 1164L408 553H905Z"/><glyph unicode="B" horiz-adv-x="1174" d="M188 0V1434H596Q782 1434 891 1343T1000 1106Q1000 984 934 894T752 766V762Q897 745 984 653T1071 412Q1071 228 939 114T606 0H188ZM356 1282V819H528Q666 819 745 885T824 1073Q824 1282 549 1282H356ZM356 668V152H584Q732 152 813 222T895 414Q895 668 549 668H356Z"/><glyph unicode="C" horiz-adv-x="1268" d="M1164 60Q1005 -24 768 -24Q462 -24 278 173T94 690Q94 1034 301 1246T826 1458Q1030 1458 1164 1399V1220Q1010 1306 824 1306Q577 1306 424 1141T270 700Q270 438 413 283T790 127Q1006 127 1164 223V60Z"/><glyph unicode="D" horiz-adv-x="1436" d="M188 0V1434H584Q1342 1434 1342 735Q1342 403 1132 202T568 0H188ZM356 1282V152H570Q852 152 1009 303T1166 731Q1166 1282 580 1282H356Z"/><glyph unicode="E" horiz-adv-x="1036" d="M948 0H188V1434H916V1282H356V805H874V654H356V152H948V0Z"/><glyph unicode="F" horiz-adv-x="1000" d="M916 1282H356V786H874V635H356V0H188V1434H916V1282Z"/><glyph unicode="G" horiz-adv-x="1405" d="M1260 98Q1044 -24 780 -24Q473 -24 284 174T94 698Q94 1031 304 1244T838 1458Q1072 1458 1231 1382V1196Q1057 1306 819 1306Q578 1306 424 1140T270 710Q270 438 413 283T801 127Q969 127 1092 194V596H778V748H1260V98Z"/><glyph unicode="H" horiz-adv-x="1454" d="M1266 0H1098V654H356V0H188V1434H356V805H1098V1434H1266V0Z"/><glyph unicode="I" horiz-adv-x="545" d="M496 1434V1290H356V144H496V0H48V144H188V1290H48V1434H496Z"/><glyph unicode="J" horiz-adv-x="731" d="M555 514Q555 259 447 118T158 -24Q74 -24 20 0V166Q74 127 160 127Q387 127 387 512V1434H555V514Z"/><glyph unicode="K" horiz-adv-x="1188" d="M1186 0H952L398 656Q367 693 360 706H356V0H188V1434H356V760H360Q374 782 398 809L934 1434H1143L528 746L1186 0Z"/><glyph unicode="L" horiz-adv-x="964" d="M932 0H188V1434H356V152H932V0Z"/><glyph unicode="M" horiz-adv-x="1839" d="M1650 0H1483V962Q1483 1076 1497 1241H1493Q1469 1144 1450 1102L960 0H878L389 1094Q368 1142 346 1241H342Q350 1155 350 960V0H188V1434H410L850 434Q901 319 916 262H922Q965 380 991 438L1440 1434H1650V0Z"/><glyph unicode="N" horiz-adv-x="1532" d="M1344 0H1138L400 1143Q372 1186 354 1233H348Q356 1187 356 1036V0H188V1434H406L1124 309Q1169 239 1182 213H1186Q1176 275 1176 424V1434H1344V0Z"/><glyph unicode="O" horiz-adv-x="1544" d="M766 -24Q461 -24 278 177T94 700Q94 1046 281 1252T790 1458Q1087 1458 1268 1258T1450 735Q1450 384 1264 180T766 -24ZM778 1306Q552 1306 411 1143T270 715Q270 450 407 289T766 127Q1002 127 1138 281T1274 712Q1274 996 1142 1151T778 1306Z"/><glyph unicode="P" horiz-adv-x="1147" d="M356 542V0H188V1434H582Q812 1434 938 1322T1065 1006Q1065 802 925 672T545 542H356ZM356 1282V694H532Q706 694 797 773T889 998Q889 1282 553 1282H356Z"/><glyph unicode="Q" horiz-adv-x="1544" d="M756 -24Q692 -24 626 -12T498 26T380 89T277 177Q94 377 94 700Q94 1047 280 1252Q468 1458 794 1458Q1086 1458 1268 1258Q1450 1058 1450 735Q1450 599 1420 479T1327 261T1171 97T949 0Q1001 -56 1046 -99T1137 -171T1232 -216T1340 -231Q1356 -231 1375 -230T1413 -225T1451 -217T1484 -206V-368Q1468 -373 1448 -376T1408 -382T1367 -386T1330 -388Q1234 -388 1158 -360T1015 -282T886 -166T756 -24ZM778 1306Q552 1306 411 1143Q270 980 270 715Q270 451 407 288Q545 127 766 127Q1002 127 1138 281Q1274 435 1274 712Q1274 997 1142 1151Q1010 1306 778 1306Z"/><glyph unicode="R" horiz-adv-x="1225" d="M1216 0H1016L776 402Q743 458 712 497T649 562T579 598T494 610H356V0H188V1434H616Q710 1434 789 1411T927 1339T1019 1220T1052 1052Q1052 977 1030 915T966 803T866 720T734 666V662Q770 646 796 626T847 577T894 514T947 431L1216 0ZM356 1282V762H584Q647 762 700 781T793 835T854 922T876 1038Q876 1153 802 1217T586 1282H356Z"/><glyph unicode="S" horiz-adv-x="1088" d="M121 58V256Q155 226 202 202T302 162T408 136T506 127Q661 127 737 184T814 350Q814 408 789 451T718 529T612 597T479 666Q404 704 339 743T226 829T151 935T123 1075Q123 1173 166 1245T279 1365T438 1435T621 1458Q833 1458 930 1407V1218Q803 1306 604 1306Q549 1306 494 1295T396 1257T326 1190T299 1090Q299 1035 319 995T380 922T477 858T610 790Q687 752 756 710T877 617T959 504T990 362Q990 256 949 183T837 63T674 -3T480 -24Q446 -24 396 -19T294 -3T196 23T121 58Z"/><glyph unicode="T" horiz-adv-x="1073" d="M1036 1282H622V0H454V1282H41V1434H1036V1282Z"/><glyph unicode="U" horiz-adv-x="1407" d="M1237 580Q1237 -24 692 -24Q170 -24 170 557V1434H338V568Q338 127 710 127Q1069 127 1069 553V1434H1237V580Z"/><glyph unicode="V" horiz-adv-x="1272" d="M1254 1434L723 0H538L18 1434H205L602 297Q621 242 631 170H635Q643 230 668 299L1073 1434H1254Z"/><glyph unicode="W" horiz-adv-x="1913" d="M1888 1434L1483 0H1286L991 1048Q972 1115 968 1194H964Q958 1120 938 1050L641 0H446L26 1434H211L516 334Q535 265 540 190H545Q550 243 576 334L893 1434H1054L1358 326Q1374 269 1382 192H1386Q1390 244 1413 330L1706 1434H1888Z"/><glyph unicode="X" horiz-adv-x="1208" d="M1178 0H973L643 549Q628 574 610 620H606Q596 597 572 549L232 0H26L506 721L64 1434H270L563 930Q592 880 614 830H618Q650 896 674 934L979 1434H1172L721 723L1178 0Z"/><glyph unicode="Y" horiz-adv-x="1132" d="M1120 1434L647 530V0H479V526L18 1434H209L530 786Q536 774 565 698H568Q578 732 606 786L942 1434H1120Z"/><glyph unicode="Z" horiz-adv-x="1168" d="M1124 1394L284 152H1104V0H33V47L866 1282H100V1434H1124V1394Z"/><glyph unicode="[" horiz-adv-x="618" d="M568 -326H200V1434H568V1315H346V-207H568V-326Z"/><glyph unicode="\" horiz-adv-x="776" d="M798 -240H647L-26 1434H129L798 -240Z"/><glyph unicode="]" horiz-adv-x="618" d="M420 -326H53V-207H274V1315H53V1434H420V-326Z"/><glyph unicode="^" horiz-adv-x="1401" d="M1174 624H1024L692 1243H686L377 624H230L652 1458H717L1174 624Z"/><glyph unicode="_" horiz-adv-x="850" d="M850 -297H0V-178H850V-297Z"/><glyph unicode="`" horiz-adv-x="549" d="M471 1218H344L82 1546H250L471 1218Z"/><glyph unicode="a" horiz-adv-x="1042" d="M899 0H735V160H731Q624 -24 416 -24Q263 -24 177 57T90 272Q90 559 428 606L735 649Q735 910 524 910Q339 910 190 784V952Q341 1048 538 1048Q899 1048 899 666V0ZM735 518L488 484Q374 468 316 428T258 284Q258 209 311 162T454 114Q576 114 655 199T735 416V518Z"/><glyph unicode="b" horiz-adv-x="1204" d="M334 148H330V0H166V1516H330V844H334Q455 1048 688 1048Q885 1048 996 911T1108 542Q1108 285 983 131T641 -24Q438 -24 334 148ZM330 561V418Q330 291 412 203T622 114Q771 114 855 228T940 545Q940 716 861 813T647 910Q504 910 417 811T330 561Z"/><glyph unicode="c" horiz-adv-x="946" d="M864 47Q746 -24 584 -24Q365 -24 231 118T96 488Q96 741 241 894T628 1048Q763 1048 866 998V830Q752 910 622 910Q465 910 365 798T264 502Q264 322 358 218T612 114Q746 114 864 203V47Z"/><glyph unicode="d" horiz-adv-x="1206" d="M1040 0H876V174H872Q758 -24 520 -24Q327 -24 212 113T96 488Q96 742 224 895T565 1048Q776 1048 872 882H876V1516H1040V0ZM876 463V614Q876 738 794 824T586 910Q436 910 350 800T264 496Q264 319 346 217T568 114Q705 114 790 213T876 463Z"/><glyph unicode="e" horiz-adv-x="1071" d="M989 471H266Q270 300 358 207T600 114Q773 114 918 228V74Q783 -24 561 -24Q344 -24 220 115T96 508Q96 747 231 897T568 1048Q769 1048 879 918T989 557V471ZM821 610Q820 752 753 831T565 910Q449 910 368 827T268 610H821Z"/><glyph unicode="f" horiz-adv-x="641" d="M672 1372Q624 1399 563 1399Q391 1399 391 1182V1024H631V884H391V0H228V884H53V1024H228V1190Q228 1351 321 1444T553 1538Q628 1538 672 1520V1372Z"/><glyph unicode="g" horiz-adv-x="1206" d="M1040 82Q1040 -482 500 -482Q310 -482 168 -410V-246Q341 -342 498 -342Q876 -342 876 60V172H872Q755 -24 520 -24Q329 -24 213 112T96 479Q96 740 221 894T565 1048Q772 1048 872 882H876V1024H1040V82ZM876 463V614Q876 736 794 823T588 910Q436 910 350 800T264 490Q264 319 346 217T565 114Q703 114 789 212T876 463Z"/><glyph unicode="h" horiz-adv-x="1159" d="M1016 0H852V590Q852 910 614 910Q494 910 412 818T330 580V0H166V1516H330V854H334Q452 1048 670 1048Q1016 1048 1016 631V0Z"/><glyph unicode="i" horiz-adv-x="496" d="M250 1284Q206 1284 175 1314T144 1390Q144 1436 175 1466T250 1497Q295 1497 326 1467T358 1390Q358 1346 327 1315T250 1284ZM330 0H166V1024H330V0Z"/><glyph unicode="j" horiz-adv-x="496" d="M330 43Q330 -209 229 -345T-62 -482Q-132 -482 -198 -450V-297Q-124 -342 -58 -342Q166 -342 166 16V1024H330V43ZM250 1284Q206 1284 175 1314T144 1390Q144 1436 175 1466T250 1497Q295 1497 326 1467T358 1390Q358 1346 327 1315T250 1284Z"/><glyph unicode="k" horiz-adv-x="1018" d="M1016 0H786L334 492H330V0H166V1516H330V555H334L764 1024H979L504 530L1016 0Z"/><glyph unicode="l" horiz-adv-x="496" d="M330 0H166V1516H330V0Z"/><glyph unicode="m" horiz-adv-x="1764" d="M1620 0H1456V588Q1456 758 1404 834T1227 910Q1122 910 1049 814T975 584V0H811V608Q811 910 578 910Q470 910 400 820T330 584V0H166V1024H330V862H334Q443 1048 652 1048Q757 1048 835 990T942 836Q1056 1048 1282 1048Q1620 1048 1620 631V0Z"/><glyph unicode="n" horiz-adv-x="1159" d="M1016 0H852V584Q852 910 614 910Q491 910 411 818T330 584V0H166V1024H330V854H334Q450 1048 670 1048Q838 1048 927 940T1016 626V0Z"/><glyph unicode="o" horiz-adv-x="1200" d="M594 -24Q367 -24 232 119T96 500Q96 758 237 903T618 1048Q847 1048 975 907T1104 516Q1104 271 966 124T594 -24ZM606 910Q448 910 356 803T264 506Q264 324 357 219T606 114Q765 114 850 217T936 510Q936 702 851 806T606 910Z"/><glyph unicode="p" horiz-adv-x="1204" d="M334 148H330V-471H166V1024H330V844H334Q455 1048 688 1048Q886 1048 997 911T1108 542Q1108 285 983 131T641 -24Q442 -24 334 148ZM330 561V418Q330 291 412 203T622 114Q771 114 855 228T940 545Q940 716 861 813T647 910Q504 910 417 811T330 561Z"/><glyph unicode="q" horiz-adv-x="1206" d="M1040 -471H876V176H872Q765 -24 522 -24Q329 -24 213 113T96 488Q96 743 224 895T568 1048Q778 1048 872 882H876V1024H1040V-471ZM876 461V610Q876 736 794 823T584 910Q436 910 350 801T264 492Q264 315 347 215T561 114Q705 114 790 212T876 461Z"/><glyph unicode="r" horiz-adv-x="712" d="M700 858Q657 891 576 891Q471 891 401 792T330 522V0H166V1024H330V813H334Q369 921 441 981T602 1042Q666 1042 700 1028V858Z"/><glyph unicode="s" horiz-adv-x="869" d="M104 37V213Q238 114 399 114Q615 114 615 258Q615 299 597 327T547 378T473 417T381 454Q313 481 262 508T176 570T124 649T106 752Q106 824 139 879T227 972T352 1029T498 1048Q631 1048 736 1002V836Q623 910 476 910Q430 910 393 900T330 870T289 825T274 766Q274 726 288 699T331 651T399 613T490 576Q558 550 612 523T704 461T762 381T783 274Q783 198 750 142T660 49T531 -6T378 -24Q220 -24 104 37Z"/><glyph unicode="t" horiz-adv-x="694" d="M641 10Q583 -22 488 -22Q219 -22 219 278V884H43V1024H219V1274L383 1327V1024H641V884H383V307Q383 204 418 160T534 116Q596 116 641 150V10Z"/><glyph unicode="u" horiz-adv-x="1159" d="M994 0H830V162H826Q724 -24 510 -24Q144 -24 144 412V1024H307V438Q307 114 555 114Q675 114 752 202T830 434V1024H994V0Z"/><glyph unicode="v" horiz-adv-x="981" d="M971 1024L563 0H402L14 1024H194L454 280Q483 198 490 137H494Q504 214 526 276L798 1024H971Z"/><glyph unicode="w" horiz-adv-x="1480" d="M1456 1024L1149 0H979L768 733Q756 775 752 828H748Q745 792 727 735L498 0H334L24 1024H196L408 254Q418 219 422 162H430Q433 206 448 256L684 1024H834L1046 252Q1056 215 1061 160H1069Q1071 199 1086 252L1294 1024H1456Z"/><glyph unicode="x" horiz-adv-x="940" d="M914 1024L570 506L908 0H717L516 332Q497 363 471 410H467Q462 401 420 332L215 0H26L375 502L41 1024H232L430 674Q452 635 473 594H477L733 1024H914Z"/><glyph unicode="y" horiz-adv-x="991" d="M981 1024L510 -164Q384 -482 156 -482Q92 -482 49 -469V-322Q102 -340 146 -340Q270 -340 332 -192L414 2L14 1024H196L473 236Q478 221 494 158H500Q505 182 520 234L811 1024H981Z"/><glyph unicode="z" horiz-adv-x="926" d="M880 977L274 140H874V0H33V51L639 884H90V1024H880V977Z"/><glyph unicode="{" horiz-adv-x="618" d="M555 -326Q248 -322 248 -16V284Q248 486 92 496V612Q248 622 248 828V1120Q248 1430 555 1434V1306Q396 1302 396 1108V815Q396 605 246 557V553Q396 508 396 297V8Q396 -103 431 -150T555 -200V-326Z"/><glyph unicode="|" horiz-adv-x="490" d="M320 -482H172V1566H320V-482Z"/><glyph unicode="}" horiz-adv-x="618" d="M528 496Q372 486 372 284V-16Q372 -322 66 -326V-200Q153 -198 189 -150T226 8V297Q226 508 375 553V557Q226 605 226 815V1108Q226 1302 66 1306V1434Q372 1430 372 1120V828Q372 622 528 612V496Z"/><glyph unicode="~" horiz-adv-x="1401" d="M1194 750Q1187 602 1114 521T914 440Q805 440 649 549Q552 616 490 616Q350 616 344 440H209Q214 583 288 666T490 750Q596 750 725 662Q857 572 922 572Q983 572 1020 621T1059 750H1194Z"/><glyph unicode=" " horiz-adv-x="561"/><glyph unicode="¡" horiz-adv-x="582" d="M291 826Q245 826 213 858T180 936Q180 982 212 1014T291 1046Q336 1046 369 1014T402 936Q402 890 369 858T291 826ZM379 -406H207L226 624H360L379 -406Z"/><glyph unicode="¢" horiz-adv-x="1104" d="M952 209Q856 150 731 140V-49H606V142Q413 164 299 303T184 649Q184 868 298 1015T606 1200V1413H731V1210Q854 1208 952 1159V987Q851 1058 731 1065V280Q853 292 952 366V209ZM606 291V1052Q487 1021 420 919T352 666Q352 516 420 417T606 291Z"/><glyph unicode="£" horiz-adv-x="1104" d="M1006 0H106V135Q324 204 324 448V635H127V776H324V1030Q324 1218 433 1338T715 1458Q832 1458 928 1417V1262Q828 1319 717 1319Q488 1319 488 1012V776H784V635H488V479Q488 237 295 140H1006V0Z"/><glyph unicode="¤" horiz-adv-x="1138" d="M1038 354L946 258L809 396Q704 320 570 320Q434 320 330 396L192 258L100 354L238 488Q162 601 162 725Q162 854 238 962L100 1098L192 1194L330 1057Q440 1134 570 1134Q699 1134 807 1057L946 1194L1038 1098L901 962Q979 850 979 725Q979 604 901 488L1038 354ZM570 1002Q454 1002 375 921T295 727Q295 614 375 533T570 452Q683 452 764 533T846 727Q846 840 763 921T570 1002Z"/><glyph unicode="¥" horiz-adv-x="1104" d="M1042 1434L686 778H971V639H637V432H971V293H637V0H473V293H129V432H473V639H129V778H420L68 1434H260L510 920Q538 862 557 809H561Q574 851 610 926L862 1434H1042Z"/><glyph unicode="¦" horiz-adv-x="490" d="M320 715H172V1566H320V715ZM320 -482H172V370H320V-482Z"/><glyph unicode="§" horiz-adv-x="918" d="M658 416Q748 342 748 230Q748 98 648 16T393 -66Q262 -66 154 -10V148Q284 74 404 74Q488 74 534 113T580 213Q580 266 545 302T364 416Q131 538 131 733Q131 896 278 977Q172 1060 172 1200Q172 1327 265 1409T512 1491Q642 1491 731 1448V1290Q630 1352 508 1352Q340 1352 340 1208Q340 1153 380 1108T584 985Q807 878 807 692Q807 522 658 416ZM398 905Q297 854 297 746Q297 674 353 620T551 502Q639 570 639 674Q639 746 587 796T398 905Z"/><glyph unicode="¨" horiz-adv-x="848" d="M610 1218Q570 1218 541 1246T512 1317Q512 1359 540 1387T608 1415Q650 1415 679 1387T708 1317Q708 1276 680 1247T610 1218ZM226 1218Q184 1218 155 1247T125 1317Q125 1359 153 1387T223 1415Q264 1415 294 1387T324 1317Q324 1276 295 1247T226 1218Z"/><glyph unicode="©" horiz-adv-x="1823" d="M912 -33Q601 -33 382 186T162 717Q162 1028 381 1247T912 1467Q1222 1467 1441 1248T1661 717Q1661 406 1442 187T912 -33ZM912 1379Q638 1379 444 1185T250 717Q250 443 444 250T912 56Q1186 56 1379 249T1573 717Q1573 991 1380 1185T912 1379ZM1183 329Q1078 260 935 260Q743 260 613 385T483 698Q483 916 616 1046T962 1176Q1083 1176 1179 1123V973Q1093 1045 950 1045Q809 1045 718 955T626 713Q626 565 719 476T957 387Q1089 387 1183 465V329Z"/><glyph unicode="ª" horiz-adv-x="803" d="M688 717H559V817H555Q476 698 324 698Q215 698 149 757T82 910Q82 1112 330 1145L559 1176Q559 1344 408 1344Q272 1344 154 1258V1386Q265 1456 420 1456Q546 1456 617 1384T688 1182V717ZM559 1075L379 1050Q211 1027 211 916Q211 865 249 833T352 801Q434 801 496 862T559 1008V1075Z"/><glyph unicode="«" horiz-adv-x="1036" d="M946 200H778L479 536L778 880H948L641 536L946 200ZM557 200H391L92 536L391 880H557L254 536L557 200Z"/><glyph unicode="¬" horiz-adv-x="1401" d="M1172 254H1040V684H232V817H1172V254Z"/><glyph unicode="­" horiz-adv-x="819" d="M690 506H144V635H690V506Z"/><glyph unicode="®" horiz-adv-x="1823" d="M912 -33Q601 -33 382 186T162 717Q162 1028 381 1247T912 1467Q1222 1467 1441 1248T1661 717Q1661 406 1442 187T912 -33ZM912 1379Q638 1379 444 1185T250 717Q250 443 444 250T912 56Q1186 56 1379 249T1573 717Q1573 991 1380 1185T912 1379ZM1276 248H1114L1010 477Q931 649 840 649H752V248H619V1202H887Q1054 1202 1144 1132T1235 942Q1235 844 1172 775T994 682V678Q1073 661 1151 502L1276 248ZM752 1088V762H895Q1092 762 1092 926Q1092 1014 1039 1051T871 1088H752Z"/><glyph unicode="¯" horiz-adv-x="850" d="M850 1396H0V1516H850V1396Z"/><glyph unicode="°" horiz-adv-x="772" d="M385 897Q270 897 189 978T108 1176Q108 1291 188 1370T383 1450Q499 1450 580 1370T662 1176Q662 1060 581 979T385 897ZM385 1333Q320 1333 274 1287T228 1176Q228 1109 273 1062T383 1014Q448 1014 495 1062T542 1176Q542 1242 496 1287T385 1333Z"/><glyph unicode="±" horiz-adv-x="1401" d="M1172 652H768V248H637V652H232V784H637V1188H768V784H1172V652ZM1172 0H232V133H1172V0Z"/><glyph unicode="²" horiz-adv-x="750" d="M658 884H104V998L344 1234Q448 1336 476 1390T504 1500Q504 1558 466 1594T366 1631Q248 1631 150 1529V1678Q234 1754 385 1754Q503 1754 572 1688T641 1514Q641 1361 436 1166L272 1010V1006H658V884Z"/><glyph unicode="³" horiz-adv-x="750" d="M129 916V1058Q232 982 346 982Q426 982 472 1019T518 1121Q518 1262 299 1262H215V1380H295Q492 1380 492 1514Q492 1633 348 1633Q254 1633 162 1564V1703Q249 1754 375 1754Q488 1754 555 1695T622 1539Q622 1388 477 1334V1330Q654 1288 654 1128Q654 1011 569 937T342 863Q205 863 129 916Z"/><glyph unicode="´" horiz-adv-x="578" d="M524 1546L262 1218H135L358 1546H524Z"/><glyph unicode="µ" horiz-adv-x="1182" d="M1048 0H878Q855 72 855 168H850Q766 -23 571 -23Q404 -23 333 100H329V-396H166V1024H329V398Q329 271 398 196T578 121Q699 121 774 207T850 438V1024H1016V265Q1016 77 1048 0Z"/><glyph unicode="¶" horiz-adv-x="938" d="M834 1331H706V0H600V1331H442V0H334V903Q226 903 155 979T84 1170Q84 1287 158 1360T340 1434H834V1331Z"/><glyph unicode="·" horiz-adv-x="444" d="M223 510Q177 510 145 543T112 622Q112 669 144 702T223 735Q270 735 303 702T336 622Q336 576 303 543T223 510Z"/><glyph unicode="¸" horiz-adv-x="420" d="M391 -256Q391 -432 116 -432Q78 -432 51 -430V-340Q94 -346 121 -346Q262 -346 262 -256Q262 -178 133 -178Q123 -178 92 -182V0H200V-104Q288 -104 339 -144T391 -256Z"/><glyph unicode="¹" horiz-adv-x="719" d="M639 884H135V996H320V1590L127 1535V1660L450 1756V996H639V884Z"/><glyph unicode="º" horiz-adv-x="882" d="M436 696Q269 696 174 796T78 1069Q78 1250 180 1352T452 1454Q615 1454 709 1355T803 1084Q803 906 704 801T436 696ZM444 1344Q338 1344 276 1272T213 1073Q213 949 272 879T442 809Q547 809 608 880T670 1075Q670 1201 610 1272T444 1344Z"/><glyph unicode="»" horiz-adv-x="1036" d="M948 538L647 200H482L784 538L482 880H647L948 538ZM559 538L260 200H90L398 538L90 880H260L559 538Z"/><glyph unicode="¼" horiz-adv-x="1856" d="M639 584H135V696H320V1290L127 1235V1360L450 1456V696H639V584ZM1393 1434L535 0H391L1250 1434H1393ZM1706 204H1596V0H1464V204H1071V296L1440 850H1596V313H1706V204ZM1468 724H1464Q1452 693 1426 651L1208 313H1464V636Q1464 668 1468 724Z"/><glyph unicode="½" horiz-adv-x="1906" d="M639 584H135V696H320V1290L127 1235V1360L450 1456V696H639V584ZM1393 1434L535 0H391L1250 1434H1393ZM1748 1H1194V115L1434 351Q1538 453 1566 507T1594 617Q1594 675 1556 711T1456 748Q1338 748 1240 646V795Q1324 871 1475 871Q1593 871 1662 805T1731 631Q1731 478 1526 283L1362 127V123H1748V1Z"/><glyph unicode="¾" horiz-adv-x="1950" d="M129 616V758Q232 682 346 682Q426 682 472 719T518 821Q518 962 299 962H215V1080H295Q492 1080 492 1214Q492 1333 348 1333Q254 1333 162 1264V1403Q249 1454 375 1454Q488 1454 555 1395T622 1239Q622 1088 477 1034V1030Q654 988 654 828Q654 711 569 637T342 563Q205 563 129 616ZM1464 1434L606 0H462L1321 1434H1464ZM1771 204H1661V0H1529V204H1136V296L1505 850H1661V313H1771V204ZM1533 724H1529Q1517 693 1491 651L1273 313H1529V636Q1529 668 1533 724Z"/><glyph unicode="¿" horiz-adv-x="918" d="M625 630Q634 604 641 563T648 480Q648 416 623 365T559 268T476 182T393 98T330 9T304 -94Q304 -142 322 -179T373 -241T447 -278T536 -291Q705 -291 829 -158V-334Q676 -430 512 -430Q436 -430 369 -410T252 -351T173 -252T143 -115Q143 -41 169 17T234 123T320 214T405 297T471 384T497 483Q497 529 486 566T464 630H625ZM535 1046Q579 1046 613 1014Q646 983 646 936Q646 890 613 858Q580 825 535 825Q490 825 457 858Q424 890 424 936Q424 983 457 1014Q491 1046 535 1046Z"/><glyph unicode="À" horiz-adv-x="1321" d="M1298 0H1112L960 402H352L209 0H22L572 1434H746L1298 0ZM905 553L680 1164Q669 1194 658 1260H654Q644 1199 631 1164L408 553H905ZM758 1566H631L369 1894H537L758 1566Z"/><glyph unicode="Á" horiz-adv-x="1321" d="M1298 0H1112L960 402H352L209 0H22L572 1434H746L1298 0ZM905 553L680 1164Q669 1194 658 1260H654Q644 1199 631 1164L408 553H905ZM867 1894L605 1566H478L701 1894H867Z"/><glyph unicode="Â" horiz-adv-x="1321" d="M1298 0H1112L960 402H352L209 0H22L572 1434H746L1298 0ZM905 553L680 1164Q669 1194 658 1260H654Q644 1199 631 1164L408 553H905ZM927 1565H805L641 1795L476 1565H363L578 1897H711L927 1565Z"/><glyph unicode="Ã" horiz-adv-x="1321" d="M1298 0H1112L960 402H352L209 0H22L572 1434H746L1298 0ZM905 553L680 1164Q669 1194 658 1260H654Q644 1199 631 1164L408 553H905ZM977 1803Q977 1698 929 1632T799 1565Q728 1565 637 1617Q560 1660 518 1660Q430 1660 430 1547H336Q336 1654 384 1718T518 1783Q583 1783 667 1731Q741 1687 795 1687Q879 1687 879 1803H977Z"/><glyph unicode="Ä" horiz-adv-x="1321" d="M1298 0H1112L960 402H352L209 0H22L572 1434H746L1298 0ZM905 553L680 1164Q669 1194 658 1260H654Q644 1199 631 1164L408 553H905ZM840 1565Q800 1565 771 1593T742 1664Q742 1706 770 1734T838 1762Q880 1762 909 1734T938 1664Q938 1623 910 1594T840 1565ZM456 1565Q414 1565 385 1594T355 1664Q355 1706 383 1734T453 1762Q494 1762 524 1734T554 1664Q554 1623 525 1594T456 1565Z"/><glyph unicode="Å" horiz-adv-x="1321" d="M1298 0H1112L960 402H352L209 0H22L551 1378Q450 1430 450 1542Q450 1631 510 1686T662 1741Q750 1741 806 1687T862 1548Q862 1436 766 1382L1298 0ZM656 1659Q606 1659 574 1628T542 1548Q542 1434 656 1434Q704 1434 737 1467T770 1548Q770 1597 737 1628T656 1659ZM905 553L680 1164Q669 1194 658 1260H654Q644 1199 631 1164L408 553H905Z"/><glyph unicode="Æ" horiz-adv-x="1762" d="M1667 0H908V402H398L205 0H10L710 1434H1634V1282H1075V805H1594V654H1075V152H1667V0ZM908 553V1282H813L467 553H908Z"/><glyph unicode="Ç" horiz-adv-x="1268" d="M1164 60Q1005 -24 768 -24Q462 -24 278 173T94 690Q94 1034 301 1246T826 1458Q1030 1458 1164 1399V1220Q1010 1306 824 1306Q577 1306 424 1141T270 700Q270 438 413 283T790 127Q1006 127 1164 223V60ZM960 -256Q960 -432 685 -432Q647 -432 620 -430V-340Q663 -346 690 -346Q831 -346 831 -256Q831 -178 702 -178Q692 -178 661 -182V0H769V-104Q857 -104 908 -144T960 -256Z"/><glyph unicode="È" horiz-adv-x="1036" d="M948 0H188V1434H916V1282H356V805H874V654H356V152H948V0ZM703 1566H576L314 1894H482L703 1566Z"/><glyph unicode="É" horiz-adv-x="1036" d="M948 0H188V1434H916V1282H356V805H874V654H356V152H948V0ZM803 1893L541 1565H414L637 1893H803Z"/><glyph unicode="Ê" horiz-adv-x="1036" d="M948 0H188V1434H916V1282H356V805H874V654H356V152H948V0ZM827 1567H705L541 1797L376 1567H263L478 1899H611L827 1567Z"/><glyph unicode="Ë" horiz-adv-x="1036" d="M948 0H188V1434H916V1282H356V805H874V654H356V152H948V0ZM749 1566Q709 1566 680 1594T651 1665Q651 1707 679 1735T747 1763Q789 1763 818 1735T847 1665Q847 1624 819 1595T749 1566ZM365 1566Q323 1566 294 1595T264 1665Q264 1707 292 1735T362 1763Q403 1763 433 1735T463 1665Q463 1624 434 1595T365 1566Z"/><glyph unicode="Ì" horiz-adv-x="545" d="M496 1434V1290H356V144H496V0H48V144H188V1290H48V1434H496ZM416 1566H289L27 1894H195L416 1566Z"/><glyph unicode="Í" horiz-adv-x="545" d="M496 1434V1290H356V144H496V0H48V144H188V1290H48V1434H496ZM509 1894L247 1566H120L343 1894H509Z"/><glyph unicode="Î" horiz-adv-x="545" d="M496 1434V1290H356V144H496V0H48V144H188V1290H48V1434H496ZM560 1567H438L274 1797L109 1567H-4L211 1899H344L560 1567Z"/><glyph unicode="Ï" horiz-adv-x="545" d="M496 1434V1290H356V144H496V0H48V144H188V1290H48V1434H496ZM470 1566Q430 1566 401 1594T372 1665Q372 1707 400 1735T468 1763Q510 1763 539 1735T568 1665Q568 1624 540 1595T470 1566ZM86 1566Q44 1566 15 1595T-15 1665Q-15 1707 13 1735T83 1763Q124 1763 154 1735T184 1665Q184 1624 155 1595T86 1566Z"/><glyph unicode="Ð" horiz-adv-x="1436" d="M188 0V641H28V796H188V1434H584Q1342 1434 1342 735Q1342 401 1132 201T568 0H188ZM356 1282V796H692V641H356V152H570Q852 152 1009 303T1166 731Q1166 1282 580 1282H356Z"/><glyph unicode="Ñ" horiz-adv-x="1532" d="M1344 0H1138L400 1143Q372 1186 354 1233H348Q356 1187 356 1036V0H188V1434H406L1124 309Q1169 239 1182 213H1186Q1176 275 1176 424V1434H1344V0ZM1113 1803Q1113 1698 1065 1632T935 1565Q864 1565 773 1617Q696 1660 654 1660Q566 1660 566 1547H472Q472 1654 520 1718T654 1783Q719 1783 803 1731Q877 1687 931 1687Q1015 1687 1015 1803H1113Z"/><glyph unicode="Ò" horiz-adv-x="1544" d="M766 -24Q461 -24 278 177T94 700Q94 1046 281 1252T790 1458Q1087 1458 1268 1258T1450 735Q1450 384 1264 180T766 -24ZM778 1306Q552 1306 411 1143T270 715Q270 450 407 289T766 127Q1002 127 1138 281T1274 712Q1274 996 1142 1151T778 1306ZM880 1566H753L491 1894H659L880 1566Z"/><glyph unicode="Ó" horiz-adv-x="1544" d="M766 -24Q461 -24 278 177T94 700Q94 1046 281 1252T790 1458Q1087 1458 1268 1258T1450 735Q1450 384 1264 180T766 -24ZM778 1306Q552 1306 411 1143T270 715Q270 450 407 289T766 127Q1002 127 1138 281T1274 712Q1274 996 1142 1151T778 1306ZM1028 1894L766 1566H639L862 1894H1028Z"/><glyph unicode="Ô" horiz-adv-x="1544" d="M766 -24Q461 -24 278 177T94 700Q94 1046 281 1252T790 1458Q1087 1458 1268 1258T1450 735Q1450 384 1264 180T766 -24ZM778 1306Q552 1306 411 1143T270 715Q270 450 407 289T766 127Q1002 127 1138 281T1274 712Q1274 996 1142 1151T778 1306ZM1063 1566H941L777 1796L612 1566H499L714 1898H847L1063 1566Z"/><glyph unicode="Õ" horiz-adv-x="1544" d="M766 -24Q461 -24 278 177T94 700Q94 1046 281 1252T790 1458Q1087 1458 1268 1258T1450 735Q1450 384 1264 180T766 -24ZM778 1306Q552 1306 411 1143T270 715Q270 450 407 289T766 127Q1002 127 1138 281T1274 712Q1274 996 1142 1151T778 1306ZM1103 1802Q1103 1697 1055 1631T925 1564Q854 1564 763 1616Q686 1659 644 1659Q556 1659 556 1546H462Q462 1653 510 1717T644 1782Q709 1782 793 1730Q867 1686 921 1686Q1005 1686 1005 1802H1103Z"/><glyph unicode="Ö" horiz-adv-x="1544" d="M766 -24Q461 -24 278 177T94 700Q94 1046 281 1252T790 1458Q1087 1458 1268 1258T1450 735Q1450 384 1264 180T766 -24ZM778 1306Q552 1306 411 1143T270 715Q270 450 407 289T766 127Q1002 127 1138 281T1274 712Q1274 996 1142 1151T778 1306ZM968 1563Q928 1563 899 1591T870 1662Q870 1704 898 1732T966 1760Q1008 1760 1037 1732T1066 1662Q1066 1621 1038 1592T968 1563ZM584 1563Q542 1563 513 1592T483 1662Q483 1704 511 1732T581 1760Q622 1760 652 1732T682 1662Q682 1621 653 1592T584 1563Z"/><glyph unicode="×" horiz-adv-x="1401" d="M1134 258L1040 164L700 504L362 164L268 258L608 596L268 936L362 1030L700 690L1040 1030L1134 936L794 596L1134 258Z"/><glyph unicode="Ø" horiz-adv-x="1544" d="M324 131L172 -51L94 14L252 205Q94 400 94 700Q94 1043 280 1250T790 1458Q1024 1458 1192 1329L1327 1491L1405 1428L1266 1262Q1450 1062 1450 735Q1450 384 1264 180T766 -24Q500 -24 324 131ZM1090 1204Q964 1306 778 1306Q551 1306 411 1142T270 715Q270 492 368 342L1090 1204ZM1157 1130L432 264Q563 127 766 127Q1002 127 1138 281T1274 712Q1274 972 1157 1130Z"/><glyph unicode="Ù" horiz-adv-x="1407" d="M1237 580Q1237 -24 692 -24Q170 -24 170 557V1434H338V568Q338 127 710 127Q1069 127 1069 553V1434H1237V580ZM830 1566H703L441 1894H609L830 1566Z"/><glyph unicode="Ú" horiz-adv-x="1407" d="M1237 580Q1237 -24 692 -24Q170 -24 170 557V1434H338V568Q338 127 710 127Q1069 127 1069 553V1434H1237V580ZM960 1893L698 1565H571L794 1893H960Z"/><glyph unicode="Û" horiz-adv-x="1407" d="M1237 580Q1237 -24 692 -24Q170 -24 170 557V1434H338V568Q338 127 710 127Q1069 127 1069 553V1434H1237V580ZM987 1567H865L701 1797L536 1567H423L638 1899H771L987 1567Z"/><glyph unicode="Ü" horiz-adv-x="1407" d="M1237 580Q1237 -24 692 -24Q170 -24 170 557V1434H338V568Q338 127 710 127Q1069 127 1069 553V1434H1237V580ZM895 1567Q855 1567 826 1595T797 1666Q797 1708 825 1736T893 1764Q935 1764 964 1736T993 1666Q993 1625 965 1596T895 1567ZM511 1567Q469 1567 440 1596T410 1666Q410 1708 438 1736T508 1764Q549 1764 579 1736T609 1666Q609 1625 580 1596T511 1567Z"/><glyph unicode="Ý" horiz-adv-x="1132" d="M1120 1434L647 530V0H479V526L18 1434H209L530 786Q536 774 565 698H568Q578 732 606 786L942 1434H1120ZM831 1894L569 1566H442L665 1894H831Z"/><glyph unicode="Þ" horiz-adv-x="1147" d="M356 318V0H188V1434H356V1208H582Q814 1208 939 1097T1065 780Q1065 576 924 447T542 318H356ZM356 1057V469H532Q705 469 797 547T889 770Q889 1057 553 1057H356Z"/><glyph unicode="ß" horiz-adv-x="1114" d="M461 2V162Q536 114 631 114Q740 114 808 187T876 385Q876 535 776 628T498 742V872Q616 892 692 975T768 1172Q768 1280 713 1339T561 1399Q330 1399 330 1090V0H166V1114Q166 1306 276 1422T572 1538Q738 1538 837 1443T936 1192Q936 1065 861 964T666 824V819Q1044 744 1044 393Q1044 216 933 96T639 -24Q538 -24 461 2Z"/><glyph unicode="à" horiz-adv-x="1042" d="M899 0H735V160H731Q624 -24 416 -24Q263 -24 177 57T90 272Q90 559 428 606L735 649Q735 910 524 910Q339 910 190 784V952Q341 1048 538 1048Q899 1048 899 666V0ZM735 518L488 484Q374 468 316 428T258 284Q258 209 311 162T454 114Q576 114 655 199T735 416V518ZM674 1218H547L285 1546H453L674 1218Z"/><glyph unicode="á" horiz-adv-x="1042" d="M899 0H735V160H731Q624 -24 416 -24Q263 -24 177 57T90 272Q90 559 428 606L735 649Q735 910 524 910Q339 910 190 784V952Q341 1048 538 1048Q899 1048 899 666V0ZM735 518L488 484Q374 468 316 428T258 284Q258 209 311 162T454 114Q576 114 655 199T735 416V518ZM757 1546L495 1218H368L591 1546H757Z"/><glyph unicode="â" horiz-adv-x="1042" d="M899 0H735V160H731Q624 -24 416 -24Q263 -24 177 57T90 272Q90 559 428 606L735 649Q735 910 524 910Q339 910 190 784V952Q341 1048 538 1048Q899 1048 899 666V0ZM735 518L488 484Q374 468 316 428T258 284Q258 209 311 162T454 114Q576 114 655 199T735 416V518ZM806 1218H684L520 1448L355 1218H242L457 1550H590L806 1218Z"/><glyph unicode="ã" horiz-adv-x="1042" d="M899 0H735V160H731Q624 -24 416 -24Q263 -24 177 57T90 272Q90 559 428 606L735 649Q735 910 524 910Q339 910 190 784V952Q341 1048 538 1048Q899 1048 899 666V0ZM735 518L488 484Q374 468 316 428T258 284Q258 209 311 162T454 114Q576 114 655 199T735 416V518ZM844 1458Q844 1353 796 1287T666 1220Q595 1220 504 1272Q427 1315 385 1315Q297 1315 297 1202H203Q203 1309 251 1373T385 1438Q450 1438 534 1386Q608 1342 662 1342Q746 1342 746 1458H844Z"/><glyph unicode="ä" horiz-adv-x="1042" d="M899 0H735V160H731Q624 -24 416 -24Q263 -24 177 57T90 272Q90 559 428 606L735 649Q735 910 524 910Q339 910 190 784V952Q341 1048 538 1048Q899 1048 899 666V0ZM735 518L488 484Q374 468 316 428T258 284Q258 209 311 162T454 114Q576 114 655 199T735 416V518ZM708 1218Q668 1218 639 1246T610 1317Q610 1359 638 1387T706 1415Q748 1415 777 1387T806 1317Q806 1276 778 1247T708 1218ZM324 1218Q282 1218 253 1247T223 1317Q223 1359 251 1387T321 1415Q362 1415 392 1387T422 1317Q422 1276 393 1247T324 1218Z"/><glyph unicode="å" horiz-adv-x="1042" d="M899 0H735V160H731Q624 -24 416 -24Q263 -24 177 57T90 272Q90 559 428 606L735 649Q735 910 524 910Q339 910 190 784V952Q341 1048 538 1048Q899 1048 899 666V0ZM735 518L488 484Q374 468 316 428T258 284Q258 209 311 162T454 114Q576 114 655 199T735 416V518ZM517 1176Q430 1176 373 1228T315 1366Q315 1456 374 1510T524 1564Q613 1564 670 1510T727 1372Q727 1288 666 1232T517 1176ZM517 1483Q469 1483 437 1451T405 1370Q405 1258 517 1258Q567 1258 600 1290T633 1370Q633 1419 600 1451T517 1483Z"/><glyph unicode="æ" horiz-adv-x="1704" d="M1622 471H897Q900 300 988 207T1229 114Q1406 114 1550 228V74Q1418 -24 1192 -24Q922 -24 809 205H805Q660 -24 418 -24Q265 -24 178 56T90 272Q90 572 473 596L735 612Q735 910 520 910Q345 910 190 788V952Q338 1048 538 1048Q770 1048 838 848H842Q958 1048 1198 1048Q1400 1048 1511 918T1622 555V471ZM1454 610Q1452 754 1386 832T1200 910Q1084 910 1001 828T899 610H1454ZM735 410V473L532 461Q393 453 325 412T256 276Q256 203 309 159T452 114Q571 114 653 198T735 410Z"/><glyph unicode="ç" horiz-adv-x="946" d="M864 47Q746 -24 584 -24Q365 -24 231 118T96 488Q96 741 241 894T628 1048Q763 1048 866 998V830Q752 910 622 910Q465 910 365 798T264 502Q264 322 358 218T612 114Q746 114 864 203V47ZM778 -256Q778 -432 503 -432Q465 -432 438 -430V-340Q481 -346 508 -346Q649 -346 649 -256Q649 -178 520 -178Q510 -178 479 -182V0H587V-104Q675 -104 726 -144T778 -256Z"/><glyph unicode="è" horiz-adv-x="1071" d="M989 471H266Q270 300 358 207T600 114Q773 114 918 228V74Q783 -24 561 -24Q344 -24 220 115T96 508Q96 747 231 897T568 1048Q769 1048 879 918T989 557V471ZM821 610Q820 752 753 831T565 910Q449 910 368 827T268 610H821ZM725 1218H598L336 1546H504L725 1218Z"/><glyph unicode="é" horiz-adv-x="1071" d="M989 471H266Q270 300 358 207T600 114Q773 114 918 228V74Q783 -24 561 -24Q344 -24 220 115T96 508Q96 747 231 897T568 1048Q769 1048 879 918T989 557V471ZM821 610Q820 752 753 831T565 910Q449 910 368 827T268 610H821ZM795 1546L533 1218H406L629 1546H795Z"/><glyph unicode="ê" horiz-adv-x="1071" d="M989 471H266Q270 300 358 207T600 114Q773 114 918 228V74Q783 -24 561 -24Q344 -24 220 115T96 508Q96 747 231 897T568 1048Q769 1048 879 918T989 557V471ZM821 610Q820 752 753 831T565 910Q449 910 368 827T268 610H821ZM840 1218H718L554 1448L389 1218H276L491 1550H624L840 1218Z"/><glyph unicode="ë" horiz-adv-x="1071" d="M989 471H266Q270 300 358 207T600 114Q773 114 918 228V74Q783 -24 561 -24Q344 -24 220 115T96 508Q96 747 231 897T568 1048Q769 1048 879 918T989 557V471ZM821 610Q820 752 753 831T565 910Q449 910 368 827T268 610H821ZM746 1218Q706 1218 677 1246T648 1317Q648 1359 676 1387T744 1415Q786 1415 815 1387T844 1317Q844 1276 816 1247T746 1218ZM362 1218Q320 1218 291 1247T261 1317Q261 1359 289 1387T359 1415Q400 1415 430 1387T460 1317Q460 1276 431 1247T362 1218Z"/><glyph unicode="ì" horiz-adv-x="496" d="M330 0H166V1024H330V0ZM625 1218H498L236 1546H404L625 1218Z"/><glyph unicode="í" horiz-adv-x="496" d="M330 0H166V1024H330V0ZM733 1546L471 1218H344L567 1546H733Z"/><glyph unicode="î" horiz-adv-x="496" d="M330 0H166V1024H330V0ZM519 1218H397L233 1448L68 1218H-45L170 1550H303L519 1218Z"/><glyph unicode="ï" horiz-adv-x="496" d="M330 0H166V1024H330V0ZM430 1218Q390 1218 361 1246T332 1317Q332 1359 360 1387T428 1415Q470 1415 499 1387T528 1317Q528 1276 500 1247T430 1218ZM46 1218Q4 1218 -25 1247T-55 1317Q-55 1359 -27 1387T43 1415Q84 1415 114 1387T144 1317Q144 1276 115 1247T46 1218Z"/><glyph unicode="ð" horiz-adv-x="1145" d="M786 968L790 971Q700 1133 592 1237L293 1086L242 1184L512 1315Q394 1420 248 1516H469Q544 1464 641 1380L930 1524L985 1430L721 1300Q1048 993 1048 526Q1048 286 919 132T568 -22Q346 -22 221 118T96 500Q96 743 226 894T576 1046Q699 1046 786 968ZM582 910Q434 910 349 802T264 506Q264 325 347 220T578 114Q717 114 798 222T880 510Q880 910 582 910Z"/><glyph unicode="ñ" horiz-adv-x="1159" d="M1016 0H852V584Q852 910 614 910Q491 910 411 818T330 584V0H166V1024H330V854H334Q450 1048 670 1048Q838 1048 927 940T1016 626V0ZM908 1458Q908 1353 860 1287T730 1220Q659 1220 568 1272Q491 1315 449 1315Q361 1315 361 1202H267Q267 1309 315 1373T449 1438Q514 1438 598 1386Q672 1342 726 1342Q810 1342 810 1458H908Z"/><glyph unicode="ò" horiz-adv-x="1200" d="M594 -24Q367 -24 232 119T96 500Q96 758 237 903T618 1048Q847 1048 975 907T1104 516Q1104 271 966 124T594 -24ZM606 910Q448 910 356 803T264 506Q264 324 357 219T606 114Q765 114 850 217T936 510Q936 702 851 806T606 910ZM747 1218H620L358 1546H526L747 1218Z"/><glyph unicode="ó" horiz-adv-x="1200" d="M594 -24Q367 -24 232 119T96 500Q96 758 237 903T618 1048Q847 1048 975 907T1104 516Q1104 271 966 124T594 -24ZM606 910Q448 910 356 803T264 506Q264 324 357 219T606 114Q765 114 850 217T936 510Q936 702 851 806T606 910ZM846 1546L584 1218H457L680 1546H846Z"/><glyph unicode="ô" horiz-adv-x="1200" d="M594 -24Q367 -24 232 119T96 500Q96 758 237 903T618 1048Q847 1048 975 907T1104 516Q1104 271 966 124T594 -24ZM606 910Q448 910 356 803T264 506Q264 324 357 219T606 114Q765 114 850 217T936 510Q936 702 851 806T606 910ZM885 1218H763L599 1448L434 1218H321L536 1550H669L885 1218Z"/><glyph unicode="õ" horiz-adv-x="1200" d="M594 -24Q367 -24 232 119T96 500Q96 758 237 903T618 1048Q847 1048 975 907T1104 516Q1104 271 966 124T594 -24ZM606 910Q448 910 356 803T264 506Q264 324 357 219T606 114Q765 114 850 217T936 510Q936 702 851 806T606 910ZM931 1458Q931 1353 883 1287T753 1220Q682 1220 591 1272Q514 1315 472 1315Q384 1315 384 1202H290Q290 1309 338 1373T472 1438Q537 1438 621 1386Q695 1342 749 1342Q833 1342 833 1458H931Z"/><glyph unicode="ö" horiz-adv-x="1200" d="M594 -24Q367 -24 232 119T96 500Q96 758 237 903T618 1048Q847 1048 975 907T1104 516Q1104 271 966 124T594 -24ZM606 910Q448 910 356 803T264 506Q264 324 357 219T606 114Q765 114 850 217T936 510Q936 702 851 806T606 910ZM793 1218Q753 1218 724 1246T695 1317Q695 1359 723 1387T791 1415Q833 1415 862 1387T891 1317Q891 1276 863 1247T793 1218ZM409 1218Q367 1218 338 1247T308 1317Q308 1359 336 1387T406 1415Q447 1415 477 1387T507 1317Q507 1276 478 1247T409 1218Z"/><glyph unicode="÷" horiz-adv-x="1401" d="M708 868Q664 868 634 898T604 973Q604 1018 633 1050T708 1082Q811 1082 811 975Q811 928 781 898T708 868ZM1172 530H232V664H1172V530ZM704 112Q660 112 629 142T598 215Q598 260 628 293T704 326Q805 326 805 217Q805 172 776 142T704 112Z"/><glyph unicode="ø" horiz-adv-x="1200" d="M1174 1048L1006 868Q1104 730 1104 522Q1104 270 965 123T594 -24Q402 -24 276 78L131 -82L49 -4L198 160Q96 297 96 500Q96 758 238 903T620 1048Q804 1048 928 950L1090 1126L1174 1048ZM821 836Q742 910 606 910Q447 910 356 803T264 506Q264 374 314 282L821 836ZM891 742L383 190Q470 114 604 114Q767 114 852 218T938 512Q938 646 891 742Z"/><glyph unicode="ù" horiz-adv-x="1159" d="M994 0H830V162H826Q724 -24 510 -24Q144 -24 144 412V1024H307V438Q307 114 555 114Q675 114 752 202T830 434V1024H994V0ZM705 1218H578L316 1546H484L705 1218Z"/><glyph unicode="ú" horiz-adv-x="1159" d="M994 0H830V162H826Q724 -24 510 -24Q144 -24 144 412V1024H307V438Q307 114 555 114Q675 114 752 202T830 434V1024H994V0ZM840 1546L578 1218H451L674 1546H840Z"/><glyph unicode="û" horiz-adv-x="1159" d="M994 0H830V162H826Q724 -24 510 -24Q144 -24 144 412V1024H307V438Q307 114 555 114Q675 114 752 202T830 434V1024H994V0ZM854 1218H732L568 1448L403 1218H290L505 1550H638L854 1218Z"/><glyph unicode="ü" horiz-adv-x="1159" d="M994 0H830V162H826Q724 -24 510 -24Q144 -24 144 412V1024H307V438Q307 114 555 114Q675 114 752 202T830 434V1024H994V0ZM770 1218Q730 1218 701 1246T672 1317Q672 1359 700 1387T768 1415Q810 1415 839 1387T868 1317Q868 1276 840 1247T770 1218ZM386 1218Q344 1218 315 1247T285 1317Q285 1359 313 1387T383 1415Q424 1415 454 1387T484 1317Q484 1276 455 1247T386 1218Z"/><glyph unicode="ý" horiz-adv-x="991" d="M981 1024L510 -164Q384 -482 156 -482Q92 -482 49 -469V-322Q102 -340 146 -340Q270 -340 332 -192L414 2L14 1024H196L473 236Q478 221 494 158H500Q505 182 520 234L811 1024H981ZM762 1546L500 1218H373L596 1546H762Z"/><glyph unicode="þ" horiz-adv-x="1204" d="M334 148H330V-471H166V1516H330V844H334Q455 1048 688 1048Q886 1048 997 911T1108 542Q1108 285 983 131T641 -24Q442 -24 334 148ZM330 561V418Q330 291 412 203T622 114Q771 114 855 228T940 545Q940 716 861 813T647 910Q504 910 417 811T330 561Z"/><glyph unicode="ÿ" horiz-adv-x="991" d="M981 1024L510 -164Q384 -482 156 -482Q92 -482 49 -469V-322Q102 -340 146 -340Q270 -340 332 -192L414 2L14 1024H196L473 236Q478 221 494 158H500Q505 182 520 234L811 1024H981ZM689 1218Q649 1218 620 1246T591 1317Q591 1359 619 1387T687 1415Q729 1415 758 1387T787 1317Q787 1276 759 1247T689 1218ZM305 1218Q263 1218 234 1247T204 1317Q204 1359 232 1387T302 1415Q343 1415 373 1387T403 1317Q403 1276 374 1247T305 1218Z"/><glyph unicode="ı" horiz-adv-x="496" d="M330 0H166V1024H330V0Z"/><glyph unicode="Œ" horiz-adv-x="1906" d="M1810 0H1090Q1074 0 952 -14Q854 -24 770 -24Q458 -24 276 177T94 700Q94 1046 283 1252T798 1458Q888 1458 976 1448Q1088 1434 1090 1434H1778V1282H1218V805H1736V654H1218V152H1810V0ZM1050 160V1278Q890 1306 782 1306Q553 1306 412 1140T270 715Q270 457 409 292T776 127Q892 127 1050 160Z"/><glyph unicode="œ" horiz-adv-x="1900" d="M1825 471H1100Q1103 300 1191 207T1434 114Q1609 114 1753 228V74Q1617 -24 1396 -24Q1126 -24 1014 213H1010Q879 -24 594 -24Q365 -24 231 119T96 498Q96 756 238 902T620 1048Q914 1048 1022 813H1026Q1145 1048 1411 1048Q1607 1048 1716 917T1825 559V471ZM1657 610Q1655 752 1588 831T1405 910Q1285 910 1202 825T1102 610H1657ZM606 910Q448 910 356 802T264 502Q264 322 356 218T604 114Q763 114 849 216T936 508Q936 702 850 806T606 910Z"/><glyph unicode="Š" horiz-adv-x="1088" d="M121 58V256Q155 226 202 202T302 162T408 136T506 127Q661 127 737 184T814 350Q814 408 789 451T718 529T612 597T479 666Q404 704 339 743T226 829T151 935T123 1075Q123 1173 166 1245T279 1365T438 1435T621 1458Q833 1458 930 1407V1218Q803 1306 604 1306Q549 1306 494 1295T396 1257T326 1190T299 1090Q299 1035 319 995T380 922T477 858T610 790Q687 752 756 710T877 617T959 504T990 362Q990 256 949 183T837 63T674 -3T480 -24Q446 -24 396 -19T294 -3T196 23T121 58ZM826 1898L612 1568H480L264 1898H379L543 1669L707 1898H826Z"/><glyph unicode="š" horiz-adv-x="869" d="M104 37V213Q238 114 399 114Q615 114 615 258Q615 299 597 327T547 378T473 417T381 454Q313 481 262 508T176 570T124 649T106 752Q106 824 139 879T227 972T352 1029T498 1048Q631 1048 736 1002V836Q623 910 476 910Q430 910 393 900T330 870T289 825T274 766Q274 726 288 699T331 651T399 613T490 576Q558 550 612 523T704 461T762 381T783 274Q783 198 750 142T660 49T531 -6T378 -24Q220 -24 104 37ZM682 1548L468 1218H336L120 1548H235L399 1319L563 1548H682Z"/><glyph unicode="Ÿ" horiz-adv-x="1132" d="M1120 1434L647 530V0H479V526L18 1434H209L530 786Q536 774 565 698H568Q578 732 606 786L942 1434H1120ZM759 1565Q719 1565 690 1593T661 1664Q661 1706 689 1734T757 1762Q799 1762 828 1734T857 1664Q857 1623 829 1594T759 1565ZM375 1565Q333 1565 304 1594T274 1664Q274 1706 302 1734T372 1762Q413 1762 443 1734T473 1664Q473 1623 444 1594T375 1565Z"/><glyph unicode="Ž" horiz-adv-x="1168" d="M1124 1394L284 152H1104V0H33V47L866 1282H100V1434H1124V1394ZM900 1895L686 1565H554L338 1895H453L617 1666L781 1895H900Z"/><glyph unicode="ž" horiz-adv-x="926" d="M880 977L274 140H874V0H33V51L639 884H90V1024H880V977ZM782 1548L568 1218H436L220 1548H335L499 1319L663 1548H782Z"/><glyph unicode="ƒ" horiz-adv-x="1104" d="M952 1266Q904 1294 844 1294Q698 1294 674 1134L643 926H809V788H622L532 140Q474 -278 184 -278Q153 -278 94 -262V-119Q130 -140 180 -140Q330 -140 370 152L461 788H358V926H482L510 1145Q527 1276 614 1355T836 1434Q900 1434 952 1415V1266Z"/><glyph unicode="ȷ" horiz-adv-x="496" d="M330 43Q330 -209 229 -345T-62 -482Q-132 -482 -198 -450V-297Q-124 -342 -58 -342Q166 -342 166 16V1024H330V43Z"/><glyph unicode="ˆ" horiz-adv-x="760" d="M656 1218H534L370 1448L205 1218H92L307 1550H440L656 1218Z"/><glyph unicode="ˇ" horiz-adv-x="760" d="M664 1548L450 1218H318L102 1548H217L381 1319L545 1548H664Z"/><glyph unicode="˙" horiz-adv-x="412" d="M207 1218Q167 1218 138 1246T108 1317Q108 1357 137 1385T207 1413Q248 1413 276 1386T305 1317Q305 1276 277 1247T207 1218Z"/><glyph unicode="˚" horiz-adv-x="574" d="M284 1176Q197 1176 140 1228T82 1366Q82 1456 141 1510T291 1564Q380 1564 437 1510T494 1372Q494 1288 433 1232T284 1176ZM284 1483Q236 1483 204 1451T172 1370Q172 1258 284 1258Q334 1258 367 1290T400 1370Q400 1419 367 1451T284 1483Z"/><glyph unicode="˜" horiz-adv-x="690" d="M676 1458Q676 1353 628 1287T498 1220Q427 1220 336 1272Q259 1315 217 1315Q129 1315 129 1202H35Q35 1309 83 1373T217 1438Q282 1438 366 1386Q440 1342 494 1342Q578 1342 578 1458H676Z"/><glyph unicode="‐" horiz-adv-x="819" d="M690 506H144V635H690V506Z"/><glyph unicode="–" horiz-adv-x="1024" d="M1024 506H0V635H1024V506Z"/><glyph unicode="—" horiz-adv-x="2048" d="M2048 506H0V635H2048V506Z"/><glyph unicode="‘" horiz-adv-x="469" d="M364 1458L256 1012H106L246 1458H364Z"/><glyph unicode="’" horiz-adv-x="469" d="M368 1458L228 1012H110L221 1458H368Z"/><glyph unicode="‚" horiz-adv-x="469" d="M346 217L205 -228H88L198 217H346Z"/><glyph unicode="“" horiz-adv-x="772" d="M668 1458L557 1012H410L551 1458H668ZM364 1458L256 1012H106L246 1458H364Z"/><glyph unicode="”" horiz-adv-x="772" d="M672 1458L532 1012H414L522 1458H672ZM368 1458L228 1012H110L221 1458H368Z"/><glyph unicode="„" horiz-adv-x="772" d="M649 217L510 -228H391L500 217H649ZM346 217L205 -228H88L198 217H346Z"/><glyph unicode="†" horiz-adv-x="768" d="M728 893L466 923L426 229H350L310 923L48 893V1043L350 1023L310 1433H466L426 1023L728 1043V893Z"/><glyph unicode="‡" horiz-adv-x="768" d="M728 519L426 539L466 229H310L350 539L48 519V669L310 639L368 831L310 1023L48 993V1143L350 1123L310 1433H466L426 1123L728 1143V993L466 1023L408 831L466 639L728 669V519Z"/><glyph unicode="•" horiz-adv-x="832" d="M418 408Q314 408 239 481T164 658Q164 761 239 836T418 912Q522 912 595 837T668 658Q668 554 595 481T418 408Z"/><glyph unicode="…" horiz-adv-x="1501" d="M1252 -18Q1206 -18 1175 14T1143 92Q1143 138 1174 171T1252 205Q1297 205 1329 172T1362 92Q1362 46 1330 14T1252 -18ZM750 -18Q704 -18 672 14T639 92Q639 138 671 171T750 205Q795 205 827 172T860 92Q860 46 828 14T750 -18ZM248 -18Q202 -18 171 14T140 92Q140 138 171 171T248 205Q293 205 325 172T358 92Q358 46 326 14T248 -18Z"/><glyph unicode="‰" horiz-adv-x="2478" d="M404 715Q256 715 168 812T80 1073Q80 1251 173 1353T424 1456Q577 1456 661 1361T746 1094Q746 922 652 819T404 715ZM418 1346Q323 1346 268 1276T213 1082Q213 961 267 894T414 826Q508 826 561 896T614 1090Q614 1211 562 1278T418 1346ZM1366 1434L444 -10H301L1222 1434H1366ZM2056 -22Q1908 -22 1820 76T1732 336Q1732 513 1826 617T2076 721Q2229 721 2313 626T2398 356Q2398 185 2304 82T2056 -22ZM2070 608Q1974 608 1920 538T1866 344Q1866 224 1919 157T2066 90Q2161 90 2214 160T2267 354Q2267 475 2214 541T2070 608ZM1258 -22Q1110 -22 1022 76T934 336Q934 514 1028 617T1278 721Q1430 721 1515 625T1600 356Q1600 185 1506 82T1258 -22ZM1272 608Q1176 608 1122 538T1067 344Q1067 225 1121 158T1268 90Q1362 90 1415 160T1468 354Q1468 476 1416 542T1272 608Z"/><glyph unicode="‹" horiz-adv-x="647" d="M557 200H391L92 536L391 880H559L254 536L557 200Z"/><glyph unicode="›" horiz-adv-x="647" d="M559 538L258 200H92L396 538L92 880H258L559 538Z"/><glyph unicode="⁄" horiz-adv-x="354" d="M690 1434L-168 0H-312L547 1434H690Z"/><glyph unicode="⁰" horiz-adv-x="750" d="M365 864Q226 864 149 973T72 1292Q72 1521 152 1637T386 1754Q677 1754 677 1313Q677 1094 596 979T365 864ZM379 1635Q210 1635 210 1298Q210 984 376 984Q540 984 540 1304Q540 1635 379 1635Z"/><glyph unicode="ⁱ" horiz-adv-x="352" d="M175 1620Q138 1620 115 1641T91 1696Q91 1727 114 1749T175 1771Q213 1771 237 1749T261 1696Q261 1664 237 1642T175 1620ZM238 717H110V1436H238V717Z"/><glyph unicode="⁴" horiz-adv-x="719" d="M682 1088H572V884H440V1088H47V1180L416 1734H572V1197H682V1088ZM444 1608H440Q428 1577 402 1535L184 1197H440V1520Q440 1552 444 1608Z"/><glyph unicode="⁵" horiz-adv-x="750" d="M126 906V1052Q240 982 326 982Q411 982 461 1027T512 1142Q512 1294 308 1294L153 1286V1738H610V1614H281V1414Q463 1427 556 1352T650 1148Q650 1022 563 943T324 863Q200 863 126 906Z"/><glyph unicode="⁶" horiz-adv-x="750" d="M611 1719V1590Q597 1599 577 1607T536 1621T492 1630T452 1634Q395 1634 353 1616T277 1562Q246 1528 224 1465T201 1304H205Q234 1354 289 1386T422 1419Q482 1419 529 1400T610 1345T660 1260T678 1149Q678 1088 656 1036T594 946T501 886T386 864Q323 864 266 888T166 962T98 1088T73 1268Q73 1385 101 1475T179 1628T300 1722T454 1754Q497 1754 538 1745T611 1719ZM386 1313Q352 1313 322 1303T270 1272T235 1224T222 1160Q222 1126 232 1094T263 1036T313 996T379 981Q454 981 496 1026T539 1145Q539 1223 501 1268T386 1313Z"/><glyph unicode="⁷" horiz-adv-x="750" d="M325 884H179L500 1626H77V1744H672V1691L325 884Z"/><glyph unicode="⁸" horiz-adv-x="750" d="M514 1332Q677 1260 677 1107Q677 994 595 929T364 864Q239 864 156 928T72 1099Q72 1252 234 1332Q103 1406 103 1532Q103 1632 179 1693T387 1754Q504 1754 576 1696T649 1544Q649 1410 514 1332ZM375 1393Q511 1450 511 1532Q511 1635 378 1635Q318 1635 280 1607T241 1534Q241 1449 375 1393ZM369 1273Q210 1219 210 1104Q210 1053 257 1019T377 984Q448 984 494 1018T540 1100Q540 1214 369 1273Z"/><glyph unicode="⁹" horiz-adv-x="750" d="M308 982Q374 982 421 1007T498 1079T541 1188T555 1326H551Q538 1298 517 1275T468 1235T407 1209T338 1199Q278 1199 230 1218T146 1272T92 1357T73 1467Q73 1530 94 1583T153 1674T246 1733T365 1754Q429 1754 486 1729T585 1653T653 1527T678 1352Q678 1247 654 1157T584 1002T468 900T308 863Q260 863 212 874T125 908V1035Q144 1024 167 1015T214 998T262 986T308 982ZM368 1636Q335 1636 307 1625T257 1592T224 1539T212 1467Q212 1391 253 1348T363 1305Q395 1305 425 1316T479 1346T517 1390T532 1445Q532 1487 520 1522T485 1583T433 1622T368 1636Z"/><glyph unicode="ⁿ" horiz-adv-x="803" d="M238 717H110V1436H238V1321H242Q309 1456 452 1456Q572 1456 639 1382T706 1176V717H576V1168Q576 1344 425 1344Q351 1344 295 1284T238 1138V717Z"/><glyph unicode="₀" horiz-adv-x="750" d="M365 -262Q226 -262 149 -153T72 166Q72 395 152 511T386 628Q677 628 677 187Q677 -32 596 -147T365 -262ZM379 509Q210 509 210 172Q210 -142 376 -142Q540 -142 540 178Q540 509 379 509Z"/><glyph unicode="₁" horiz-adv-x="719" d="M639 -242H135V-130H320V464L127 409V534L450 630V-130H639V-242Z"/><glyph unicode="₂" horiz-adv-x="750" d="M658 -242H104V-128L344 108Q448 210 476 264T504 374Q504 432 466 468T366 505Q248 505 150 403V552Q234 628 385 628Q503 628 572 562T641 388Q641 235 436 40L272 -116V-120H658V-242Z"/><glyph unicode="₃" horiz-adv-x="750" d="M129 -210V-68Q232 -144 346 -144Q426 -144 472 -107T518 -5Q518 136 299 136H215V254H295Q492 254 492 388Q492 507 348 507Q254 507 162 438V577Q249 628 375 628Q488 628 555 569T622 413Q622 262 477 208V204Q654 162 654 2Q654 -115 569 -189T342 -263Q205 -263 129 -210Z"/><glyph unicode="₄" horiz-adv-x="719" d="M682 -38H572V-242H440V-38H47V54L416 608H572V71H682V-38ZM444 482H440Q428 451 402 409L184 71H440V394Q440 426 444 482Z"/><glyph unicode="₅" horiz-adv-x="750" d="M126 -220V-74Q240 -144 326 -144Q411 -144 461 -99T512 16Q512 168 308 168L153 160V612H610V488H281V288Q463 301 556 226T650 22Q650 -104 563 -183T324 -263Q200 -263 126 -220Z"/><glyph unicode="₆" horiz-adv-x="750" d="M611 593V464Q597 473 577 481T536 495T492 504T452 508Q395 508 353 490T277 436Q246 402 224 339T201 178H205Q234 228 289 260T422 293Q482 293 529 274T610 219T660 134T678 23Q678 -38 656 -90T594 -180T501 -240T386 -262Q323 -262 266 -238T166 -164T98 -38T73 142Q73 259 101 349T179 502T300 596T454 628Q497 628 538 619T611 593ZM386 187Q352 187 322 177T270 146T235 98T222 34Q222 0 232 -32T263 -90T313 -130T379 -145Q454 -145 496 -100T539 19Q539 97 501 142T386 187Z"/><glyph unicode="₇" horiz-adv-x="750" d="M325 -242H179L500 500H77V618H672V565L325 -242Z"/><glyph unicode="₈" horiz-adv-x="750" d="M514 206Q677 134 677 -19Q677 -132 595 -197T364 -262Q239 -262 156 -198T72 -27Q72 126 234 206Q103 280 103 406Q103 506 179 567T387 628Q504 628 576 570T649 418Q649 284 514 206ZM375 267Q511 324 511 406Q511 509 378 509Q318 509 280 481T241 408Q241 323 375 267ZM369 147Q210 93 210 -22Q210 -73 257 -107T377 -142Q448 -142 494 -108T540 -26Q540 88 369 147Z"/><glyph unicode="₉" horiz-adv-x="750" d="M308 -144Q374 -144 421 -119T498 -47T541 62T555 200H551Q538 172 517 149T468 109T407 83T338 73Q278 73 230 92T146 146T92 231T73 341Q73 404 94 457T153 548T246 607T365 628Q429 628 486 603T585 527T653 401T678 226Q678 121 654 31T584 -124T468 -226T308 -263Q260 -263 212 -252T125 -218V-91Q144 -102 167 -111T214 -128T262 -140T308 -144ZM368 510Q335 510 307 499T257 466T224 413T212 341Q212 265 253 222T363 179Q395 179 425 190T479 220T517 264T532 319Q532 361 520 396T485 457T433 496T368 510Z"/><glyph unicode="€" horiz-adv-x="1104" d="M1014 50Q881 -24 732 -24Q305 -24 223 482H102V622H210Q206 653 206 699Q206 747 212 807H102V947H233Q284 1187 425 1322T769 1458Q906 1458 1014 1402V1240Q900 1318 758 1318Q633 1318 536 1218T399 947H896V807H377Q369 708 376 622H896V482H392Q464 116 742 116Q873 116 1014 203V50Z"/><glyph unicode="™" horiz-adv-x="1583" d="M1396 772H1288V1250H1284L1065 772H1006L792 1250H788V772H686V1434H813L1038 938H1042L1270 1434H1396V772ZM602 1336H393V772H282V1336H76V1434H602V1336Z"/><glyph unicode="∕" horiz-adv-x="354" d="M690 1434L-168 0H-312L547 1434H690Z"/><glyph unicode="∙" horiz-adv-x="444" d="M223 510Q177 510 145 543T112 622Q112 669 144 702T223 735Q270 735 303 702T336 622Q336 576 303 543T223 510Z"/><glyph unicode="ﬀ" horiz-adv-x="1274" d="M227 1024V1045Q227 1139 250 1223T321 1372T438 1473T604 1510Q657 1510 702 1506T774 1492V1344Q744 1358 703 1364T613 1371Q504 1371 448 1283T391 1037V1024H860V1190Q860 1268 884 1332T951 1441T1055 1512T1186 1538Q1261 1538 1305 1520V1372Q1257 1399 1196 1399Q1024 1399 1024 1182V1024H1264V885H1024V0H860V885H391V0H227V885H53V1024H227Z"/><glyph unicode="ﬃ" horiz-adv-x="1822" d="M1656 0H1492V885H1024V0H860V885H391V0H227V885H53V1024H227V1045Q227 1139 250 1223T321 1372T438 1473T604 1510Q657 1510 702 1506T774 1492V1344Q744 1358 703 1364T613 1371Q504 1371 448 1283T391 1037V1024H860V1045Q860 1139 892 1228T988 1387T1150 1498T1376 1540Q1448 1540 1511 1536T1609 1522V1374Q1563 1388 1500 1394T1363 1401Q1280 1401 1217 1374T1110 1298T1046 1183T1024 1037V1024H1656V0Z"/><glyph unicode="ﬄ" horiz-adv-x="1822" d="M1656 0H1494V1390Q1471 1394 1428 1397T1341 1401Q1258 1401 1198 1374T1098 1298T1041 1183T1022 1037V1024H1263V885H1022V0H858V885H391V0H227V885H53V1024H227V1045Q227 1139 250 1223T321 1372T438 1473T604 1510Q657 1510 702 1506T774 1492V1344Q744 1358 703 1364T613 1371Q504 1371 448 1283T391 1037V1024H858V1045Q858 1139 887 1228T976 1387T1131 1498T1354 1540Q1416 1540 1491 1535T1656 1516V0Z"/><glyph unicode="﴾" horiz-adv-x="618" d="M596 -326H450Q140 28 140 547Q140 1068 450 1434H598Q284 1054 284 549Q284 48 596 -326Z"/><glyph unicode="﴿" horiz-adv-x="618" d="M170 -326H24Q336 48 336 549Q336 1054 22 1434H170Q482 1068 482 547Q482 28 170 -326Z"/></font>
</defs>
</svg>
